<?xml version="1.0" standalone="no"?>
<!DOCTYPE svg PUBLIC "-//W3C//DTD SVG 1.1//EN" "http://www.w3.org/Graphics/SVG/1.1/DTD/svg11.dtd" >
<svg xmlns="http://www.w3.org/2000/svg">
<metadata>
This is a custom SVG webfont generated by Font Squirrel.
</metadata>
<defs>
<font id="webfontKOf9F4sx" horiz-adv-x="754" >
<font-face units-per-em="1024" ascent="819" descent="-205" />
<missing-glyph horiz-adv-x="1024" />
<glyph unicode=" "  horiz-adv-x="1024" />
<glyph unicode="&#x09;" horiz-adv-x="1024" />
<glyph unicode="&#xa0;" horiz-adv-x="1024" />
<glyph unicode="!" d="M377 781q101 0 186.5 -49.5t136 -135t50.5 -187t-50.5 -187t-136 -135t-186.5 -49.5t-187 49.5t-135.5 135t-49.5 187t49.5 187t135.5 135t187 49.5zM412 196v66h-70v-66h70zM412 333q0 16 9.5 31t24 26.5t29 25.5t24.5 34.5t10 47.5q0 47 -36.5 76t-86.5 29 q-30 0 -56 -10t-38 -21l-11 -10l38 -48q29 24 61 24q24 0 39.5 -14t15.5 -34q0 -15 -9.5 -29.5t-23.5 -26t-27.5 -24.5t-23 -31.5t-9.5 -40.5v-28h70v23z" />
<glyph unicode="&#x22;" d="M377 781q101 0 186.5 -49.5t136 -135t50.5 -187t-50.5 -187t-136 -135t-186.5 -49.5t-187 49.5t-135.5 135t-49.5 187t49.5 187t135.5 135t187 49.5zM345 614v-65h63v65h-63zM447 214v60h-22q-12 0 -12 13v177q0 38 -38 38h-68v-61h23q12 0 12 -13v-175q0 -20 8.5 -29.5 t29.5 -9.5h67z" />
<glyph unicode="#" d="M377 781q101 0 186.5 -49.5t136 -135t50.5 -187t-50.5 -187t-136 -135t-186.5 -49.5t-187 49.5t-135.5 135t-49.5 187t49.5 187t135.5 135t187 49.5zM410 208q47 7 76.5 39.5t29.5 74.5q0 38 -19.5 64.5t-47 40.5t-55 25.5t-47 26t-19.5 33.5q0 17 16 28.5t42 11.5 q20 0 35 -8.5t15 -22.5v-18h67v38q0 33 -28.5 52t-64.5 23v54h-51v-54q-47 -7 -76.5 -35.5t-29.5 -70.5q0 -36 19.5 -62t47 -41t55 -27t47 -27t19.5 -34q0 -22 -15.5 -34.5t-41.5 -12.5q-16 0 -32 6t-26.5 14t-18 16.5t-11.5 15.5l-4 5l-51 -43q2 -2 4.5 -7t13 -17 t23.5 -22.5t33.5 -19.5t43.5 -13v-51h51v52z" />
<glyph unicode="$" horiz-adv-x="358" d="M267 365q39 -23 62.5 -63t23.5 -87q0 -72 -51 -123t-123.5 -51t-123 51t-50.5 123q0 49 24.5 89.5t65.5 63.5v363q0 36 25 61t61 25t61 -25t25 -61v-366zM179.5 70q60.5 0 103 43t42.5 102q0 39 -19 72.5t-53 52.5l-14 9v382q0 24 -17 40.5t-40.5 16.5t-40.5 -16.5 t-17 -40.5v-380l-14 -8q-35 -19 -55.5 -53.5t-20.5 -74.5q0 -59 42.5 -102t103 -43zM239 315q27 -15 42 -42t15 -58q0 -48 -34.5 -82.5t-82.5 -34.5t-82.5 34.5t-34.5 82.5q0 32 16.5 59.5t44.5 42.5l30 17v249h57v-250z" />
<glyph unicode="%" horiz-adv-x="723" d="M614 632q46 -15 75.5 -55t29.5 -90q0 -65 -45 -109t-109 -44h-109l-56 -52l55 6l-234 -259l68 228l-50 -10l55 87h-135q-63 0 -108.5 44.5t-45.5 108.5q0 50 30 90t76 56q2 43 33 73t75 30q27 0 51 -13q25 42 67 66t92 24q76 0 130 -52.5t55 -128.5zM565 385 q42 0 72.5 29.5t30.5 72.5q0 37 -24 65.5t-60 35.5q-10 1 -16 9t-5 18v13q0 55 -39.5 94.5t-94.5 39.5q-43 0 -77 -24t-49 -63q-5 -13 -19 -16t-24 8q-16 18 -41 18q-24 0 -40.5 -16.5t-16.5 -39.5q0 -5 1 -12q2 -10 -4 -18.5t-17 -10.5q-37 -6 -61.5 -35t-24.5 -66 q0 -43 30.5 -72.5t72.5 -29.5h406z" />
<glyph unicode="&#x26;" horiz-adv-x="723" d="M614 642q46 -15 75.5 -55t29.5 -90q0 -63 -45 -108.5t-109 -45.5h-406q-63 0 -108.5 45t-45.5 109q0 51 30 91t76 55q2 43 33 73t75 30q27 0 51 -13q25 41 67 65.5t92 24.5q76 0 129.5 -52.5t55.5 -128.5zM565 394q42 1 72.5 31t30.5 72q0 38 -24 66t-60 35q-10 1 -16 9 t-5 19v12q0 55 -39.5 94.5t-94.5 39.5q-43 0 -77 -24t-49 -63q-5 -13 -19 -15.5t-24 7.5q-16 18 -41 18q-24 0 -40.5 -16t-16.5 -40q0 -5 1 -11q2 -10 -4 -19.5t-17 -10.5q-37 -6 -61.5 -34.5t-24.5 -66.5q0 -42 30.5 -72t72.5 -31h406zM392 203l29 -29q7 -8 7 -18.5 t-7 -18.5q-8 -7 -18.5 -7t-18.5 7l-29 29l-28 -29q-8 -7 -18.5 -7t-17.5 7q-7 8 -7 18.5t7 18.5l28 29l-28 28q-7 8 -7 18.5t7 17.5t18 7t18 -7l28 -28l29 28q7 7 18 7t18.5 -7t7.5 -18t-7 -18zM608 260.5q7 -7.5 7 -18t-7 -18.5l-28 -28l28 -29q7 -7 7 -18t-7 -18t-18 -7 t-18 7l-28 29l-29 -29q-8 -7 -18.5 -7t-18 7t-7.5 18t7 18l29 29l-29 28q-7 8 -7 18.5t7.5 18t18 7.5t18.5 -7l29 -29l28 29q8 7 18.5 7t17.5 -7.5zM204 206l28 -29q9 -7 9 -18t-8 -18.5t-18.5 -7.5t-17.5 8l-29 29l-29 -29q-8 -7 -18 -7t-18 7t-8 18t7 18l29 29l-28 28 q-8 8 -8 18.5t8 18.5t18.5 7.5t17.5 -7.5l29 -28l29 28q7 8 17.5 8t18.5 -8t7.5 -18.5t-8.5 -18.5z" />
<glyph unicode="'" horiz-adv-x="723" d="M614 642q46 -15 75.5 -55t29.5 -90q0 -63 -45 -108.5t-109 -45.5h-406q-63 0 -108.5 45t-45.5 109q0 51 30 91t76 55q2 43 33 73t75 30q27 0 51 -13q25 41 67 65.5t92 24.5q76 0 129.5 -52.5t55.5 -128.5zM565 394q42 1 72.5 31t30.5 72q0 38 -24 66t-60 35q-10 1 -16 9 t-5 19v12q0 55 -39.5 94.5t-94.5 39.5q-43 0 -77 -24t-49 -63q-5 -13 -19 -15.5t-24 7.5q-16 18 -41 18q-24 0 -40.5 -16t-16.5 -40q0 -5 1 -11q2 -10 -4 -19.5t-17 -10.5q-37 -6 -61.5 -34.5t-24.5 -66.5q0 -42 30.5 -72t72.5 -31h406zM259.5 212q-14.5 0 -25.5 10.5 t-11 25.5t11 26t25.5 11t25.5 -11t11 -26t-11 -25.5t-25.5 -10.5zM451.5 212q-15.5 0 -25.5 10.5t-10 25.5t10 26t25.5 11t25.5 -11t10 -26t-10 -25.5t-25.5 -10.5zM157 83q-15 0 -25.5 10.5t-10.5 25.5t10.5 26t25.5 11t26 -11t11 -26t-11 -25.5t-26 -10.5zM349.5 83 q-15.5 0 -26 10.5t-10.5 25.5t10.5 26t26 11t25.5 -11t10 -26t-10 -25.5t-25.5 -10.5zM541 83q-15 0 -25.5 10t-10.5 25.5t10.5 26.5t25.5 11t26 -11t11 -26.5t-11 -25.5t-26 -10z" />
<glyph unicode="(" horiz-adv-x="723" d="M614 632q46 -15 75.5 -55t29.5 -90q0 -65 -45 -109t-109 -44h-406q-63 0 -108.5 44.5t-45.5 108.5q0 50 30 90t76 56q2 43 33 73t75 30q27 0 51 -13q25 42 67 66t92 24q76 0 130 -52.5t55 -128.5zM565 385q42 0 72.5 29.5t30.5 72.5q0 37 -24 65.5t-60 35.5q-10 1 -16 9 t-5 18v13q0 55 -39.5 94.5t-94.5 39.5q-43 0 -77 -24t-49 -63q-5 -13 -19 -16t-24 8q-16 18 -41 18q-24 0 -40.5 -16.5t-16.5 -39.5q0 -5 1 -12q2 -10 -4 -18.5t-17 -10.5q-37 -6 -61.5 -35t-24.5 -66q0 -43 30.5 -72.5t72.5 -29.5h406zM197 136q0 -32 -23 -55t-55 -23 t-55 23t-23 55l2 12q1 5 3.5 10.5t3.5 7.5t5.5 9t5.5 9q14 20 38 48l15 19l16 17l11 13t9 9l3 3q8 8 18 8q5 0 10 -2q16 -6 16 -24v-4v-11v-14v-20v-20v-21v-20v-17v-12zM92 135q1 -10 9 -17.5t18 -7.5q11 0 18.5 7.5t7.5 18.5v72l-2 -2q-46 -54 -51 -71zM386 136 q0 -32 -23 -55t-55.5 -23t-55 23t-22.5 55l2 12q1 5 4 10t4 8t5.5 9.5t5.5 8.5q14 20 38 48l15 19q8 10 15 17t12 13t8 9l3 3q8 8 18 8q5 0 10 -2q16 -6 16 -24v-2v-137zM282 135q1 -10 8 -17.5t18 -7.5q10 0 18 7.5t9 18.5v72l-2 -2q-46 -54 -51 -71zM562 299q16 -6 15 -24 v-2v-137q0 -32 -23 -55t-55 -23t-55 23t-23 55l2 12q1 5 3.5 10.5t4 7.5t6 9t5.5 9q13 19 37 49l53 60q9 8 19 8q5 0 11 -2zM525 136v72l-2 -2q-46 -53 -51 -71q1 -10 8.5 -17.5t18.5 -7.5t18.5 7.5t7.5 18.5z" />
<glyph unicode=")" horiz-adv-x="787" d="M364 645l-25 60l-5 11q-5 10 -7 15.5t-3.5 14t1.5 14t10 8.5q9 4 16 0t13.5 -14.5t10 -19.5t7.5 -21.5t5 -14.5l15 -35q5 -12 -2.5 -21.5t-19 -8.5t-16.5 12zM527 634q-7 4 -10 11t-0.5 17t5.5 18t8.5 19t7 13.5t4 10.5t4.5 13.5t6.5 14.5t8 12t10.5 6.5t13 -0.5 q8 -4 10.5 -11t0 -17t-5.5 -18t-8.5 -19t-6.5 -14l-4 -10q-3 -8 -5 -14t-6 -14.5t-8 -11.5t-10.5 -6.5t-13.5 0.5zM459.5 648q-8.5 0 -14 5.5t-7 16t-1.5 18.5t0.5 20t0.5 15t-0.5 14.5t-0.5 19t1.5 17t7.5 15t14 5.5t13.5 -6t7 -16t1.5 -19t-0.5 -20.5t-0.5 -14t0.5 -14.5 t0.5 -19.5t-2 -17t-7 -14.5t-13.5 -5zM586 596q5 -5 11.5 -5.5t12 2.5t13 9t12.5 11t10.5 12t7.5 9t9 7.5t11.5 10t10 11.5t8 12.5t2 11.5t-5.5 11t-11 6h-3l-9 -2q-6 -3 -12.5 -8.5t-11 -10t-10 -11t-7.5 -8.5t-9 -8t-12 -11t-11 -12t-9 -13t-2.5 -12.5t5.5 -11.5zM625 538 q3 -7 9.5 -10.5t15.5 -1.5t17 5.5t17.5 8.5t12 6t14 4.5t19 7t17 8.5t12.5 12.5t-0.5 15t-10.5 10.5t-16 1t-16 -5l-18 -8l-12.5 -5t-14 -5t-19.5 -8l-16 -9q-9 -5 -12 -12t1 -15zM303 595q9 -8 21 -4.5t15 14t-5 21.5q-3 4 -7 8t-10 8.5t-8 7.5l-9 10q-6 8 -12 14t-15 13.5 t-15 11t-14 5.5h-3q-6 0 -11 -6t-6 -12.5t4 -13.5l9 -11q4 -5 12 -12t9 -9zM748 374l-60 24l-12 6q-9 5 -15 6l-14 4q-8 2 -13.5 -1t-8.5 -12q-4 -8 0 -15.5t14 -13t19.5 -10t21.5 -8t14 -5.5l36 -14q12 -5 21.5 2.5t9 19.5t-12.5 17zM762 492h-64q-2 0 -12.5 0.5t-16.5 0 t-14.5 -2.5t-12.5 -7t-4 -13q0 -9 6.5 -14.5t18 -7.5t21.5 -2t23 1.5t16 1.5h38q13 0 19 11q2 5 2 11q0 5 -2 10q-5 11 -18 11zM615 344l42 -42q2 -1 13 -10.5t17 -17.5t7 -15q1 -3 1 -5q0 -10 -11 -16q-14 -8 -26 3q0 1 -14 15l-42 42q20 -29 24 -63q1 -9 1 -17 q0 -25 -9 -47q-11 -30 -36.5 -53.5t-60.5 -30.5q-15 -3 -32 -3q-8 -1 -18.5 -1t-22.5 1h-33h-277q-40 0 -72 22.5t-48 55.5q-12 27 -12 59v12q3 39 29 70q25 31 61 43q2 38 29.5 64t65.5 26q19 0 38 -8q5 -2 9 0.5t8.5 10t6.5 10.5h-70q-2 0 -8 -1t-9 -1t-8 2 q-17 -1 -20.5 16.5t13.5 23.5q9 3 21 3.5t27.5 -1t21.5 -1.5q3 0 12.5 1t15.5 1t13.5 -2t12.5 -6t6 -11q9 6 10.5 9t3.5 14l4 20q6 19 16 37q19 35 55 57q36 24 80 26q5 1 11 1q38 0 71 -16q54 -27 78 -81q16 -34 16 -70q0 -20 -5 -41q-14 -57 -63 -93q13 -7 25 -18 q-9 15 5.5 26.5t26.5 -0.5zM460 594q-44 0 -77.5 -26.5t-43.5 -67.5q19 4 37 4q47 0 88 -27q59 -38 71 -106q33 25 43 64q5 18 5 35q0 20 -7 39q-11 35 -42.5 60t-73.5 25zM582 203q2 9 2 17q0 29 -20 52q-13 17 -33 27q-4 2 -12 4t-14 5t-9 8q-5 7 -5.5 22.5t-0.5 23.5 q-4 24 -17 45q-31 46 -87 51q-6 1 -12 1q-47 0 -82 -35q-3 -3 -10 -14l-11 -18q-5 -9 -12.5 -17t-14.5 -7.5t-17 8.5q-12 14 -31 16h-5q-17 0 -30 -10q-19 -15 -20 -40q0 -2 0.5 -7.5t0 -8t-1.5 -7t-3.5 -7t-6.5 -4.5q-6 -3 -19 -7.5t-19 -7.5t-14.5 -10.5t-15.5 -17.5 q-14 -21 -14 -44q0 -18 8 -37q19 -42 62 -53q10 -2 61 -2h232q6 0 25 -1h15.5h10.5l26 2q17 1 26.5 3.5t22.5 8t20.5 13.5t14.5 20.5t10 27.5zM172 565l68 -27l27 -12q5 -2 9 -2q6 0 12 5q9 8 9 18q0 13 -13 18q-9 5 -20.5 10.5t-26 10t-21.5 7.5l-28 11q-5 2 -9 2 q-6 0 -11 -4q-9 -8 -9 -19q0 -13 13 -18z" />
<glyph unicode="*" horiz-adv-x="791" d="M395.5 627q83.5 0 142.5 -59t59 -142.5t-59 -142.5t-142.5 -59t-142.5 59t-59 142.5t59 142.5t142.5 59zM395 275q62 0 106.5 44.5t44.5 106.5q0 61 -44 105t-107 44q-62 0 -105.5 -44t-44.5 -105q1 -62 44.5 -106.5t105.5 -44.5zM396 641q-11 0 -18.5 7t-7.5 19v124 q0 10 7.5 17.5t18.5 7.5t18 -7.5t7 -17.5v-124q0 -11 -7 -18.5t-18 -7.5zM478 625q-10 4 -14 13.5t0 18.5l47 115q4 10 15 14q5 3 10 3t10 -3q9 -4 13 -13.5t0 -19.5l-48 -115q-6 -15 -24 -15q-5 0 -9 2zM547.5 577.5q-7.5 7.5 -7.5 18t8 17.5l87 88q8 9 18.5 9t18 -8 t7.5 -18.5t-7 -17.5l-88 -88q-7 -8 -18 -8t-18.5 7.5zM594 508q-4 10 0 20t14 14l115 47q9 4 19.5 0t14 -14t0 -19.5t-14.5 -13.5l-114 -47q-5 -2 -11 -2q-16 0 -23 15zM761 452q10 0 17.5 -8t7.5 -18.5t-7.5 -18t-17.5 -7.5h-125q-10 0 -18 7.5t-8 18t8 18.5t18 8h125z M742 310q10 -4 14 -14q3 -5 3 -11q0 -4 -2 -9q-7 -16 -24 -16q-5 0 -10 2l-115 48q-10 4 -14 14t0 19.5t13.5 13.5t20.5 0zM584 273l88 -88q7 -7 7 -17.5t-7 -18t-18 -7.5t-18 8l-88 88q-7 7 -7 17.5t7 18.5t18 7.5t18 -8.5zM511 213l48 -115q2 -4 2 -9t-2 -10 q-4 -10 -14 -14q-4 -1 -9 -2q-17 0 -24 16l-48 115q-4 10 0 19.5t13.5 13.5t20 0t13.5 -14zM396 211q11 0 18.5 -7.5t7.5 -18.5v-125q0 -10 -7.5 -17.5t-18.5 -7.5t-18 7.5t-7 17.5v125q0 10 7 18t18 8zM314 226q10 -4 14 -14q2 -4 2 -8.5t-2 -9.5l-48 -115q-6 -16 -24 -17 q-5 0 -9 3q-10 4 -14.5 13.5t-0.5 19.5l49 115q3 9 13 13t20 0zM244 273.5q7 -7.5 7 -18t-7 -18.5l-88 -87q-7 -8 -18 -8l-1 -1q-10 0 -17 8t-7 18.5t7 17.5l88 88q7 7 18 7.5t18 -7zM197 342.5q4 -9.5 0 -19.5t-14 -14l-114 -47q-5 -2 -11 -2q-16 0 -23 15q-4 10 0 20 t14 14l115 47q9 4 19 0t14 -13.5zM180 425.5q0 -10.5 -7 -18.5t-18 -8h-124q-11 0 -18.5 8t-7.5 18t8 18t18 8h124q11 0 18 -7.5t7 -18zM48 541q-9 4 -13 13q-2 5 -2 10t2 10q4 10 13.5 14t19.5 0l115 -47q9 -4 13.5 -14t0.5 -19q-6 -16 -24 -16q-5 0 -10 2zM207 578l-88 87 q-7 8 -7 18t7.5 18t18 7.5t18.5 -7.5l87 -88q8 -7 8 -17.5t-7 -18.5q-8 -8 -17 -8q-1 0 -1 1q-11 0 -19 8zM280 638l-49 115q-2 4 -2 9t3 10q4 10 14 14q4 3 9 3l9 -3q10 -4 15 -14l48 -115q2 -5 2 -9.5t-2 -9.5q-4 -10 -14 -14q-5 -1 -10 -1q-17 0 -23 15z" />
<glyph unicode="+" horiz-adv-x="744" d="M315 587q28 0 63 1q9 1 17 1q28 0 60 -4q41 -5 80.5 -12t76.5 -24t65.5 -38.5t45 -55.5t16.5 -76q0 -54 -19.5 -97t-49.5 -69t-67.5 -44t-74 -26t-67 -12t-49.5 -4h-20v54q6 2 17 5t37.5 13.5t46.5 22t37 30t17 39.5q0 17 -23.5 30t-62 18.5t-73.5 7.5t-73 2v-62 l-310 179l310 179v-58z" />
<glyph unicode="," horiz-adv-x="752" d="M655 540l93 -54l-93 -52l-91 -53v58h-164h-3q-38 0 -131 -73q-3 -2 -9 -7q-36 -28 -58 -41.5t-61 -29t-76 -15.5h-57v94h57h1q50 0 147 74q4 2 27 19.5t35 25.5l-36 26q-23 18 -26 20q-96 74 -147 74h-1h-57v94h57q30 -1 57.5 -8t58 -25t43 -26.5t45.5 -33.5 q92 -73 130 -73h4h164v58z" />
<glyph unicode="-" horiz-adv-x="752" d="M564 206v58h-57q-30 0 -57.5 7.5t-58 25.5t-43.5 27l-45 32q-95 75 -132 75h-2h-164v93h164h2q37 0 132 74q3 2 8 7q37 27 59 41t61 29t76 16h57v59l91 -54l93 -52l-93 -53l-91 -52v58h-57h-1q-50 0 -147 -74q-3 -2 -27 -19l-35 -27q12 -8 35.5 -26t26.5 -19 q96 -75 147 -75h1h57v60l91 -53l93 -53l-93 -53z" />
<glyph unicode="." horiz-adv-x="757" d="M663 242l-91 -53v59h-74q-104 0 -181 97q-14 18 -46 65.5t-49 62.5q-27 26 -55 26h-162v92h162h3q50 0 93 -32q31 -23 63 -65q9 -12 24 -35l25 -36q9 -13 22.5 -28.5t24.5 -25.5q35 -28 77 -29h73v57l91 -52l90 -51zM282 591h290v58l91 -52l90 -52l-90 -52l-91 -52v58 h-205l-12 16q-36 48 -70 74q0 1 -1 1.5t-2 0.5z" />
<glyph unicode="/" horiz-adv-x="757" d="M222 483q-27 25 -55 26h-162v92h162q52 0 96 -32q21 -15 43 -41l-4 -4q-3 -3 -4 -5q-17 -21 -45 -62l-4 -5q-15 20 -27 31zM572 408l91 -53l90 -51l-90 -52l-91 -52v58h-74q-89 0 -159 73l7 9l27 38l21 31q14 -18 28 -30q35 -28 77 -29h73v58zM422 479 q-11 -9 -24.5 -24.5t-22.5 -28.5l-25 -36l-24 -35q-32 -44 -63 -65q-44 -33 -96 -33h-162v93h162q29 0 55 26q16 15 49 62l46 65q77 97 181 98h74v57l91 -51l90 -52l-90 -52l-91 -51v57h-73q-42 -1 -77 -30z" />
<glyph unicode="0" horiz-adv-x="750" d="M376 709q-124 0 -212 -87.5t-88 -211.5q0 -101 62 -183l-56 -43q-77 99 -77 226q0 100 49.5 185.5t134.5 135t187 49.5q65 0 126 -22l21 36l40 -69l40 -70h-160l23 39q-46 15 -90 15zM669 635q76 -99 76 -222q0 -103 -49 -189t-134.5 -135.5t-185.5 -49.5q-62 0 -121 20 l-23 -39l-39 70l-40 70h159l-20 -37q42 -13 84 -13q124 1 211.5 88.5t87.5 211.5q0 101 -63 182z" />
<glyph unicode="1" d="M377 781q101 0 186.5 -49.5t136 -135t50.5 -187t-50.5 -187t-136 -135t-186.5 -49.5t-187 49.5t-135.5 135t-49.5 187t49.5 187t135.5 135t187 49.5zM377.5 63q93.5 0 173.5 46.5t126.5 126t46.5 174t-46.5 174.5t-126.5 126t-173.5 46t-173.5 -46t-126.5 -126 t-46.5 -174.5t46.5 -174t126.5 -126t173.5 -46.5zM251 461q-18 0 -30 25t-12 60t12 60t30 25t31 -25t13 -60t-13 -60t-31 -25zM498 461q-18 0 -30.5 25t-12.5 60t12.5 60t30.5 25t31 -25t13 -60.5t-13 -60t-31 -24.5zM176 276q95 -62 199 -62q111 0 211 71 q-96 -131 -208 -131h-2q-108 0 -200 122z" />
<glyph unicode="2" d="M377 781q101 0 186.5 -49.5t136 -135t50.5 -187t-50.5 -187t-136 -135t-186.5 -49.5t-187 49.5t-135.5 135t-49.5 187t49.5 187t135.5 135t187 49.5zM498 631q-18 0 -30.5 -25t-12.5 -60t12.5 -60t30.5 -25t31 25t13 60t-13 60t-31 25zM251 631q-18 0 -30 -25t-12 -60 t12 -60t30 -25t31 25t13 60t-13 60t-31 25zM378 154q112 0 208 131q-100 -71 -211 -71q-103 0 -199 62q93 -122 202 -122z" />
<glyph unicode="3" horiz-adv-x="813" d="M408 688q11 0 18.5 -7.5t7.5 -17.5v-253q0 -1 -1 -3v-3l-1 -4q-1 -2 -3 -5l-1 -2l-1 -1q-3 -3 -7 -5q-1 0 -1 -1h-1l-169 -75q-5 -2 -10 -2q-17 0 -24 16q-4 10 -0.5 19.5t13.5 13.5l155 68v237q0 10 7 17.5t18 7.5zM808 644q0 -69 -46 -119q18 -57 18 -115 q0 -101 -49.5 -187t-135.5 -135.5t-187 -49.5t-186.5 49.5t-135.5 135t-50 187.5q0 57 18 112q-49 51 -49 122q0 74 52.5 126t124.5 52q75 0 128 -54q49 13 99 13q47 0 95 -12q52 53 127 53q74 0 125.5 -52t51.5 -126zM408 115q122 0 208.5 86.5t86.5 208t-86.5 208.5 t-208.5 87t-208.5 -87t-86.5 -208.5t86.5 -208t208.5 -86.5z" />
<glyph unicode="4" d="M377 781q101 0 186.5 -49.5t136 -135t50.5 -187t-50.5 -187t-136 -135t-186.5 -49.5t-187 49.5t-135.5 135t-49.5 187t49.5 187t135.5 135t187 49.5zM377.5 115q122.5 0 209 86.5t86.5 208t-86.5 208.5t-209 87t-209 -87t-86.5 -208.5t86.5 -208t209 -86.5zM377.5 688 q10.5 0 17.5 -7.5t7 -17.5v-253v-3q0 -1 -1 -3q0 -4 -1 -4q0 -2 -3 -5l-1 -2q0 -1 -1 -1q-2 -3 -7 -5v-1h-1l-170 -75q-5 -2 -10 -2q-16 0 -24 16q-2 5 -2 10t2 9q4 10 14 14l154 68v237q0 10 8 17.5t18.5 7.5z" />
<glyph unicode="5" d="M377 781q101 0 186.5 -49.5t136 -135t50.5 -187t-50.5 -187t-136 -135t-186.5 -49.5t-187 49.5t-135.5 135t-49.5 187t49.5 187t135.5 135t187 49.5zM182 621l-6 5l3 2q12 -6 7 -11q-4 -2 -4 4zM161 610l5 5q1 -4 0 -5h-5zM381.5 624.5q0.5 0.5 11.5 0.5t13 7v4 q-1 1 -3 1l-9 1q-4 1 2 5q1 0 8 -1l4 1l11 -2l6 -3q-9 -3 -11 -3q0 -1 1 -2q2 0 6 -3h14l16 -7q6 0 17 1q11 2 15 -6q2 -1 10.5 -0.5t14.5 0.5q7 0 15 -5q2 5 3.5 7t9.5 -3q30 0 24 -7q-2 -1 0 -5.5t-2.5 -6t-0.5 -5.5t1 -4h-3q-5 2 -17.5 -3t-16.5 -5h-15q-7 0 -9.5 -4 t-1.5 -5.5t-0.5 -5.5t-1.5 -5t-4 -2t-9 -6.5t-6 -5.5l-10 -9q1 5 3 8t0 8t-2.5 7.5t3.5 6.5q8 10 16 10l17 11q-11 -7 -17 -7q-1 0 -1.5 3t-2 3t-3.5 -0.5t-3 -2t-5.5 -4t-9.5 -6.5t-10 0t-7 2t-8 -2l-18 2q-2 -1 -8.5 -6.5t-10 -6.5t-6.5 -3t-1.5 -3.5t3.5 0.5t2.5 2 t0.5 -2.5t2 -2.5l8 2q3 0 5 -4l6 2q4 0 3 -3t-2 -3t3 -4.5t0.5 -6.5t-3.5 -4l1 -8v-2q-8 -3 -6.5 9t-1.5 18q1 -1 -2 -10t-10 -15q-12 -9 -15 -13t-8 1q-1 1 -3 -1t-5 -3t-3 -5l-7 -4q0 -1 4 -5.5t2 -9t-5.5 -6.5t-6.5 -0.5t0 4.5t-1 10l-5 -2v4q4 7 -2 7q-7 -5 -10 -4.5 t1 7.5l-11 -6q-2 0 -3.5 -1.5t3 -4.5t8.5 -2t5 -2q0 -2 -1 -4q-2 -1 -5.5 -2.5t-3.5 -2.5q9 -9 9 -15v-7q1 -3 -6 -9t-16.5 -15.5t-14.5 -6.5q-9 7 -9 -2l3 -5q-10 -12 -10 -1l3 9q0 6 -5 1l-9 -7q2 -6 5 -7.5t8 -8.5t3 -13t-6 -7t-7.5 -4.5t-10.5 3.5q-6 12 -10.5 12 t-4.5 -12q-6 7 -6 9l-1 15q0 4 -5 -0.5t-7 -5.5q-3 0 -2.5 7t-4.5 13.5t-5.5 9t-3.5 -0.5t-8 -3t-7 -1t-3.5 -3.5t-3 -3.5t-5.5 -5t-8.5 -6t-4.5 -12.5t-5 -15.5l-6 -9q-3 0 -3 4t-7 16l-7 13l-3 13v11l-7 -4q-5 0 -4.5 5t-3 6t-9.5 7l-15 -3q-15 0 -19 7l-1 -8q7 -2 10 -7 q-6 -12 -12 -18v-6q0 -122 86.5 -208.5t209 -86.5t209 86.5t86.5 208t-86.5 208.5t-203 87t-199.5 -73h3l9 3l10 4q5 2 9 1.5t11 2t8 1.5l11 -2q13 4 13 5l1 1q2 1 15 -3l-1 -1q27 3 30.5 -0.5t-0.5 -7t-1 -3t16 -0.5t13 -3l19 4h11q2 -2 2.5 -6.5t3.5 -5t6.5 1.5t4 2.5 t2 -1t2 -1zM341.5 306q0.5 -2 6.5 1t6 5t-3 3t-6.5 -3t-3 -6zM348 383q-3 -4 -6 -3t-5 0t-3 -2.5t-0.5 -2t4.5 -0.5t5.5 -2.5t4.5 -2.5q8 2 5 8zM336 347l9 1q2 0 2 4q-6 0 -11 -2l-7 1q-3 -5 3 -5q2 1 4 1zM335 440q-1 3 -3.5 1.5t-1.5 -8.5q4 0 5 7zM336 384h6 q3 0 -1.5 5.5t-5.5 0.5t1 -6zM345 390q0 -1 4.5 -1t1.5 5q-2 1 -4 1zM376 331l6 1q2 0 2.5 -1.5t5.5 -2t8.5 -5t1.5 -5.5t-3 -4h3q2 0 4 0.5t3 -0.5q2 -7 5 -7t8.5 7t8.5 1q2 -8 8 -9.5t7 -0.5q0 7 -4 8q-8 2 -8 10q0 2 -2.5 3t-5 4t-5.5 4t-9 4t-10.5 3.5t-7.5 0.5t-3 -1 l-7 2h-3q-1 0 -2.5 3t-4.5 0t-3 -3.5t4.5 -1.5t5 -1.5t-2 -3.5t-0.5 -5zM174 384q-3 -1 -3 -9q0 -4 3 -5q2 -1 3.5 2.5t0.5 5.5l-2 4q-1 2 -2 2zM361.5 346q2.5 3 1.5 7.5t-5 -2t-1.5 -7.5t5 2zM406 509l-8 -20q-6 0 -8.5 -2.5t-8 -1.5t-11.5 -5q-6 0 -5 -6t5 -6t4 5 q0 3 4 1t7 5h1q-1 -2 2 -3q5 -1 5 3q14 7 16 7v4q0 5 2.5 6.5t1 4t-2.5 5.5t-2 3h-2zM410 516l-10 -5q-5 -3 9 0t20 4q-3 6 -6.5 4.5t-5.5 0.5q-3 3 -4 3q-3 0 -3 -7zM341 326q0 6 -7 13q0 1 3.5 0.5t3.5 2.5q-1 2 -9 1l-5 1q-1 0 -1.5 -3t-2 -5.5t0 -3.5t3.5 0t3.5 2.5 t2 0.5t0.5 -3t8 -6zM503 266q-4 0 -2 -1.5t4.5 -5.5t4.5 1q1 4 -7 6zM534 189l-6 -4l-1 -1q-1 -2 -9 -6.5t-9 -7t1 -3.5t6 -1l1 -1q3 0 6 3t9.5 7.5t6.5 8.5v1zM398 213l8 -9q0 -4 1 -5h2q5 0 6.5 -3.5t4.5 0.5t5.5 1t4 -2t7.5 3t7.5 7t6.5 10.5t5 17.5t-2.5 16.5t-6 7.5 t-5 5t-1.5 3.5t-1.5 2t-3.5 1.5t-3.5 2t-2 3t-1.5 5.5t-1 5.5q-1 2 -5.5 6.5t-6.5 10.5t-4 0.5t0 -9t-0.5 -9.5t-11.5 -1.5t-10 5.5t1 5.5t1 5.5h-11l-2 1q-2 2 -3 2l-1 -6q-6 6 -6.5 3.5t-2 -4t-3 -5.5t-5.5 0t-7.5 3t-4.5 -5t-5 -5.5t-6 -3t-2 -5.5t-1 -4l-17 -2l-12 -8 q-6 -3 -1.5 -8.5t2.5 -6t-2 -3.5l6 -13q0 -1 3.5 -5t-2 -6.5t0 -7.5t20.5 3h11q5 9 9 9h4l2 -1q14 9 17 3q1 -2 5 -3q6 -1 5 -9h6q1 3 5 6q2 1 2 -1v-5q1 -2 2 1zM438 188l-9 -3l-5 1q-2 -2 0.5 -3.5t1.5 -3.5q0 -2 3 -2t4 1q5 2 5 10zM551 201h-4q-3 1 -5.5 6t-5 3.5t1 -5 t1 -7.5t-1.5 -5h4l2 -3q-1 -4 0 -5q2 0 5 4.5t4 6.5q6 5 -1 5zM552 278q1 -1 3 -1t4 3q6 8 6 9q0 2 -13 -11zM324 309q0 -1 2 -3h2t2 2q0 3 -2.5 3t-3.5 -2zM333 407l6 8q-1 4 -3.5 4t-2.5 -2t-6 -6.5t5 -11.5q2 -1 -6.5 -9.5t7.5 3.5q4 6 7 6t5 2q-8 2 -11 2q-1 0 -1 4z M297 313l8 -1q6 0 2 3t-5 3l-10 3q-4 -1 -4 -3l-1 1q-2 1 -5.5 1.5t-4.5 3.5t-4 -1t0 -6q9 -6 15 0q4 -4 9 -4zM322 366q-5 0 -5 7q0 3 -6 -3l1 -2q-2 -2 -5.5 -2t-5 -4t-4.5 -4.5t-4 -3t-3 -1.5l-2 1h-2q-3 -2 1 -11.5t9 -9.5h8q10 -3 10 1q-1 8 4 12q8 8 0 16q5 4 6 5z M270.5 323q1.5 0 1.5 4.5t2 6.5q1 1 1 2.5t-1 2.5t-2 1q-1 -1 -4 2t-8 6.5t-12 12.5q-3 4 -7 6t-6.5 1.5l-2.5 -0.5q0 -2 8 -10q9 -10 9 -14.5t8 -10.5l3 -1q2 -2 4.5 -4t2.5 -3q2 -2 3.5 -2zM256 357l8 -7q3 -2 4 -2t1 1t-1 3q-4 7 -4.5 9.5t-3 7t-5 6.5t-2.5 3l-8 7 q-2 0 -2 -3.5t3 -4.5t4 -6t6 -14z" />
<glyph unicode="6" d="M377 781q101 0 186.5 -49.5t136 -135t50.5 -187t-50.5 -187t-136 -135t-186.5 -49.5t-187 49.5t-135.5 135t-49.5 187t49.5 187t135.5 135t187 49.5zM371 557q3 6 15 6q0 1 -5 5l11 1h11q3 2 -2 6l-7 -1h-4q-3 0 -7 -1.5t-5.5 1.5t-3.5 6t6 7q16 8 8 8h-9q-3 0 -3 -0.5 t0.5 -2.5t-2.5 -5t-7.5 -3.5t-6.5 -1.5q-2 -5 3 -6.5t0 -6.5t-5 -7q0 -1 -10 -4t-10 1l-3 9q-1 3 -3 -1t-5.5 -4t-8 1.5t-4 4t-1 6t-1.5 4.5q0 3 14 7t19.5 12t8.5 10t22 5q7 1 15 1q11 0 22 -2l11 -4q4 -2 22.5 -4t11 -4t-14 -4t-12 -0.5t-5.5 0.5q2 -1 2.5 -5t4 -1.5t6 1 t5 -1t2.5 2.5t0.5 2.5t3.5 1t4 1.5t3 1.5t3 -1.5t2 -2v5q-4 7 2 7t7 -1t-5.5 -12t1.5 -1t13 10h5l21 3h6q2 1 5 -0.5t6 1.5t8 2t12 -1l13 -3q2 2 -5 5.5t0 6.5l12 9q2 -1 4.5 -2.5t4 -2t0 -6.5t1 -8.5t-4.5 -7t-4 -4.5l9 3q11 14 12.5 8.5t5.5 -4t3 3t-1.5 3.5t-8.5 0l-6 -4 q-1 0 0 5l-1 6q0 1 3 6q1 2 1.5 1t0.5 -7q1 -2 5 -1l1 1q-87 88 -196 88l-1 1q-108 0 -184 -55q-12 -8 -1 -12q-4 -6 -4 -10t-2 -4h-7q-5 -1 -5 -4q1 0 1.5 -2.5t2.5 -4.5t-3.5 -3t-5.5 3t-4 4l-2 -4l1 -1q2 0 6 -4l-17 -5q-2 -1 -7.5 -1.5t-6.5 -1.5q-71 -82 -71 -190 q0 -20 4 -45q7 -3 9.5 -8.5t4.5 -5.5t2 -4t-9 -5q-4 -1 -1 -3t9 4q9 0 5.5 -5.5t-5.5 -4.5q3 -1 4 1q0 6 7 6l16 -7q3 -2 7.5 -0.5t7 -1.5t12.5 -7t5.5 -14t-11.5 -15t-6 -9t-0.5 -9t-0.5 -6.5t-1.5 -4t-5 -7.5t-8.5 -5q86 -139 265 -139q93 0 174 68t101 170q-1 1 -4.5 5.5 t-4.5 5.5q4 1 9 -4h1q2 11 0.5 14t0.5 5.5t3 4.5v1q-3 4 -3 5v14q0 4 -7 0q-3 -5 -5.5 -5t-2 7t-2.5 11l-7 10q-2 4 -4.5 1t-7.5 -3t-7 -1t-3.5 -3.5t-3 -3t-5.5 -5t-8.5 -6t-4.5 -10t-5 -17.5t-6.5 -9t-1.5 4t-7 15l-7 12l-4 15l1 10l-8 -4q-4 0 -3.5 5t-3 6t-9.5 7l-15 -3 q-13 0 -17.5 4.5t-8 2.5t-9 0.5t-10 10t-7 4t-2.5 -4.5l8 -11q0 -2 4 -4.5t3.5 -4t0.5 -2.5q2 0 14 8l14 -11q1 0 -4 -9t-13 -13t-10.5 -5.5t-7 -1.5t-15.5 -7t-16 10q-3 13 -9.5 17t-7.5 13l-4 5l-5 12q0 2 -8 0q2 -3 14 -27t17.5 -26t5.5 -9q0 -1 -0.5 -3.5t3.5 -3.5l27 7 l-3 -13l-10 -17q0 -7 -6 -8t-12 -8l-7 -8q-4 -6 -7 -6q-2 -2 0 -15l5 -13q0 -20 -12.5 -26t-9.5 -13t3 -9t-5.5 -5t-4.5 -7t-11.5 -16.5t-22.5 -12t-12 -1.5q-8 -6 -11 6.5t-6 14.5q-2 2 -3.5 5t-2 3.5t-1 8.5t-6.5 15.5t-6 17.5t4.5 13.5t2 8t-2 9t-0.5 5.5t-5 7.5t-7.5 9 t-2 6t1.5 7.5t3 6.5t-1.5 5t-8.5 0t-8 0.5l-2 3q-2 10 -13.5 5t-11.5 -6l-13 1q-8 0 -9 -3.5t-4 -0.5l-9 8q-8 6 -10 11t-8 7.5t-6.5 4t0 3.5t0.5 3t-2 3v2q8 8 5.5 18t-1 12t6 9.5t11.5 11t7 12t7 8.5q6 6 20 6l22 8q18 0 23 2t7.5 -4.5t0.5 -6.5q-6 0 -1.5 -4.5t9.5 -4.5 l16 -6q7 0 11.5 4t7.5 3l11 -3q12 0 13 -1t-2.5 -3.5t-5.5 -4.5q1 -2 4 1.5t10 5t8.5 0t3.5 -1.5q8 0 10 19q0 3 -5.5 1.5t-6.5 -1.5l-16 2q-1 1 -4 2q-5 2 -5 9t-6 4.5t-3 -5t3 -4t-5 -5t-5.5 -2.5t-2.5 6t-4.5 8t-3 5t-4 3.5t-5 4t-9 6.5t-8 2t2.5 -4t4.5 -4.5t7.5 -5.5 l9 -5h-6q-1 -1 -1 -5t-1 -4t-3 5.5t-11 8.5t-10 8.5t-7.5 1t-7.5 -4.5l-9 2q-1 0 -2.5 -4t-7.5 -5t-5.5 -5.5t-0.5 -6.5l-7 -5q-8 -1 -9.5 -0.5t-3.5 -2.5v-1l-5 4q0 1 -3 1h-4q-5 5 -5 7t2 3.5t0 7.5t2 8h15q11 0 13 2q8 11 -9 14h-4q-1 1 1 2h3l8 3l11 3q3 0 3 5l8 2 q9 9 18 7q2 -1 0 2q-8 11 7 11q1 -1 1 -3v-3l3 -4h6l6 -2q7 2 9 3.5t7.5 -0.5t5.5 1v4zM501 485q0 -3 -9 -3l-12 3q-3 3 -2.5 6.5t1.5 3.5q3 -1 6 2t-1 5h-4l-1 1q-2 0 -6.5 7t-1 9.5t7 1.5t7 1.5t4 3t4.5 -0.5t5 -3q0 -1 2 -3t-1 -4t-5.5 0.5t-5.5 1t-3 -3.5v-2 q3 0 5.5 -3.5t4.5 -4t2.5 -1t-1 -2.5t0 -3.5t3.5 -11.5zM407 501l-8 -2v6q-3 3 3 6q2 1 5.5 6t7.5 5q2 -1 4 -5.5t6 -2.5t4.5 5t5 3t2.5 -1.5t-4 -2.5t2 -2.5t8 -4t7 -3.5q5 -4 2 -7q-12 -3 -22.5 0.5t-12 1.5t-10.5 -2zM417.5 578.5q3.5 -4.5 2.5 -5.5t-5.5 0.5t-2.5 5.5 t5.5 -0.5zM417 333q-2 1 -2 6t4 5t5 -1.5t-2 -5.5t-5 -4zM305 495l-1 2l-2 -2h3zM537 636l-22 -2q-1 0 -4.5 -3t-16 -8t-4 -7t13 -4.5t9 2t-2.5 4.5q-1 2 2 6q17 10 28 7.5t14.5 2t0.5 5.5h-2q-3 0 -3 -1q-2 -2 -7 -2h-6zM324 498q-1 -3 1 -4.5t4 1t0.5 4.5t-3 2t-2.5 -3z M341 489q-2 -1 1 -2.5t7 -4t4 3.5q-2 3 -6 3h-6zM270 547q0 12 -12 5q-4 0 -3.5 -3.5t-1 -5t3.5 -4.5q13 0 13 8zM279 567l-13 -2q-4 -1 0 -6q5 -7 16.5 -8.5t1.5 -3t-12 -5.5q3 -3 7 -4l-1 -2l6 2l10 -2q6 0 6 6q-1 4 -4.5 6t-6.5 5.5t-3.5 4t0.5 2.5q1 7 -7 7zM601 379 q-2 -1 -2.5 -6.5t2 -6.5t3.5 2q1 2 1 3.5t-1 4.5q-1 4 -3 3zM461.5 247.5q-0.5 -3.5 6 -3.5t11 15t6.5 18q1 2 1 6q0 12 -4 13q-3 0 -4 -3q-6 -14 -11 -11q-10 0 -6.5 -8t1 -10.5t-1 -7.5t1 -8.5zM233 594q-1 1 -16 1h-8q-4 4 -6 4t-4 -2q-1 -3 -1 -5q0 -4 5 -4q6 1 7 -2 q2 -2 4 -2h4q5 2 6 3l6 2q0 1 3 5z" />
<glyph unicode="7" d="M377 781q101 0 186.5 -49.5t136 -135t50.5 -187t-50.5 -187t-136 -135t-186.5 -49.5t-187 49.5t-135.5 135t-49.5 187t49.5 187t135.5 135t187 49.5zM447 166q-2 4 -2 8v12l4 4l6 18q0 2 2 7t2 13v8q2 12 2 20t-4 9.5t-7 3t-8 3t-5 7.5l-7 12q0 1 -2.5 6t-3 7t-5.5 5 t-3 6t1.5 11t3.5 10t6 4.5t2.5 2.5t1 2.5t2 6.5t-3 9.5t-7.5 5.5l-3 -6q-2 -1 -3.5 1t-3.5 2.5t-5 3t-6 3.5q-4 3 -4 6.5t-5 6t-6 1.5l-7 2l-14 9q-4 0 -6 -2.5t-5 0.5t-9.5 3t-6.5 5l-13 8q-2 0 -4.5 6.5t-5.5 9t-6 6.5t-10.5 11.5t-7.5 10.5q-1 5 -4 3t0.5 -5t5.5 -6.5 t4.5 -5.5t3 -5t4.5 -6.5t2 -5.5t-4 1t-4.5 3.5t-5 5t-8.5 4.5q-2 2 2 6q2 2 -1.5 3t-4.5 4t-3 6t-4.5 7.5t-5.5 3.5l-7 5q-1 0 -3.5 4.5t-6.5 9t-3 15t1 11.5l-2 8q0 8 -13 8q-4 0 -2.5 6.5t-4.5 6.5q-2 0 -6 8l-2 -1l1 -2v-2l2 -6q0 -1 -4.5 1.5t-4.5 8.5t-5 6l-14 10 l-17 5l-18 4l-18 -8q-1 0 -1 2q1 2 1.5 3.5t-1.5 0.5q-4 -2 -4 -4.5t-4 -5.5h6q1 -2 -3 -5t-10 1q-1 0 -22 -34.5t-21 -134.5t86.5 -186.5t208.5 -86.5q35 0 72 8q-5 2 -4.5 5t-1.5 4t-2.5 2t1 2t1 2t-2 1.5t-1.5 1.5l3 7q-2 4 -3 5zM243 532q4 0 8 -4q10 -8 5.5 -8.5t-5 3 t-3.5 4.5h-2q-3 3 -3 5zM482 168h2q1 1 2 0l-8 -8q-11 -10 -3 -10h3q7 -7 -2 -7l-9 -7q-4 -2 -2 -7l1 -1q83 26 139.5 94.5t65.5 156.5q-2 -1 -2 3v5q0 1 -2 3v2q1 0 5 7l1 11v2q-3 8 -1 10q-4 100 -69 177q-10 0 -16 -7h-10q-12 0 -12 -9q0 -4 -3 -3t-3 -3q-4 -21 -12 -5 h-1q-5 -3 -5 -1l-15 13l1 2q-9 2 -9 10l3 5q0 1 -5 1q-2 2 -1 7q2 3 5 2h3q3 0 1.5 -3t1.5 -5q2 0 2 2.5t-2 5.5q-6 6 -9.5 2t-4.5 -3q-3 16 -5 16q-15 5 -23 6h-4q-6 -1 -8 5q-2 -5 -3 -6.5t-4 -0.5l-7 6h-4q-2 0 -3 1q4 2 9.5 2t6 4.5t3.5 3.5q10 -3 8 2t1.5 6.5t4.5 0 t3.5 0t0.5 2.5q-6 7 9.5 7.5t19.5 -2t9 0.5q-70 41 -140 41q-136 0 -226 -96q9 -1 13 -1h3q5 -2 8 -1.5t7 -0.5t5.5 -2.5t5.5 0.5l2 3h2q2 1 6 0t8 0.5t8 1t5.5 0.5t3.5 0l2 -4q5 3 6 3h3q3 -1 4 0q9 2 13 -2q1 -1 4.5 -1.5t6 -1.5t4.5 2q-11 5 -12 8.5t-2.5 0.5t-8 -3.5 t-7.5 1.5q-1 1 -8 3l2 1q2 0 3 4.5t7 4.5h12l8 2q9 -9 18 -9q16 3 18 -1q13 -26 7.5 -12t-5.5 16t4 1h3q7 0 7.5 -0.5t-0.5 -3.5q-6 -8 7 -8q10 0 7 -3.5t-8 -3.5q-10 0 -10 -3q1 -1 10 -1h18l-1 5q-9 3 2 3l6 -1v-2q1 -2 1 -4q0 -6 6 -3.5t3 9t-2.5 8t2.5 1.5 q9 0 11.5 -6.5t5.5 -4.5t6 -1v-5l4 2q1 0 5 2l2 5h-9q-19 0 -14.5 6.5t8 7.5t5.5 2t4.5 0t2 -5t-0.5 -4.5t4 0.5q2 1 1.5 4t0.5 3q8 1 11 1l15 1l36 -13h4q1 -1 1 -4q1 -5 6.5 -5t8.5 -4l12 -3q-2 -3 -3 -4l-6 -2q-2 -2 -8 2q-11 7 -8 2q2 -5 6 -7t5 -7q-2 -1 -5.5 0t-6 0 t-4.5 0q-8 4 -13 4l-7 3h-12l-5 -1l-2 3q0 5 6 4t8 2t7 4q3 1 -2 3q-4 1 -4 0l-4 -4h-6q-4 0 -1 2q7 3 4 6q-3 1 -5 0.5t-2 1.5h-3l-2 -1q-5 1 -7 0l-3 -3q11 -6 -5 -9q-4 1 -7 1q-5 0 -5 -2q1 -1 3 -1l4 -1q4 1 6 -0.5t5 -2.5q8 -3 6 -5t-3.5 -2t-4.5 4h-6q-5 -3 -8.5 -3 t-1 2t0 3.5t-2.5 3.5q-2 -4 -2 -5l-8 -1q-3 0 -6 -3t-9 -7q-11 -7 0 -12l5 -5l34 -6q4 1 4 -3l2 -5q0 -2 4 2v-5q0 -11 4.5 -6t4.5 6q-2 3 -2 6q-4 6 -2 6.5t3 -1.5t6 1l2 5q-4 5 -7 6.5t1 2.5q2 0 1 2q-2 6 2 10h13l11 -5q8 -1 9 -2t-1 -3t3.5 -4.5t9 2.5t5.5 4 q4 -4 6 -6.5t4 -3.5q5 -4 5 -6t3 -2q7 0 10 -6q1 -2 6 -3q3 -1 1 -3.5t-2.5 -3.5t-1 -2.5t-1.5 -2.5q6 -3 8 -2.5t3 -1.5t3 -4l1 -2q-1 -2 -2 -3l-5 1l-3 -1q-1 2 -4 1.5t-6 -0.5q-6 0 -4 1.5t3 5t3.5 5.5t-0.5 5l-5 -5l-11 -3v-1q2 0 -1.5 -1.5t-5 -1.5t-1.5 6l-2 -1l-7 1 q-1 -1 -4 -2l-11 -8q2 1 6.5 2t8.5 3t7 -2q1 -2 0.5 -4t0.5 -3l4 2q2 -1 2 -3t2 -2t4 2t4 -1.5t-2.5 -5t-9.5 -2.5h-4q-4 -4 -6.5 -4t-3.5 7q-1 1 -3 -2q-12 -2 -12 -4.5t2 -6.5q-3 -4 -8 -3t-7 -1q4 -4 -0.5 -4t-3.5 -3t-2.5 -1.5t-3.5 -2t1.5 -5.5t0.5 -3.5t-3 -2.5 t-7.5 -5.5t-8.5 -5.5t-3 -7t3 -10q8 -11 -1 -11q-8 8 -9 16q0 3 -2 2t-5 1.5t-4.5 2t-3.5 -0.5h-5q-5 0 -5 -3.5t-4 -2.5q-15 6 -15 1l-12 -9q1 -1 1 -3.5t-1 -4.5q-4 -11 4.5 -18.5t12 -5t5.5 1.5t3.5 0.5t0.5 3.5q-3 5 4 5l10 1q2 0 2 -5t-5 -15q1 -4 0 -3l5 -1l7 2 q2 0 5.5 -3t2 -6.5t-1.5 -6.5q3 -21 16 -8l10 -4l12 10q1 0 4 2q10 5 7 1t-3 -5v-5q0 -3 1 -3t1 3q3 9 8 9l10 -4q2 0 4.5 -1.5t2.5 -0.5q0 11 6 5t7 -6t2 2l2 2l-2 -8l2 -3h3l37 -23q3 0 3 -4t-10 -6q-5 -1 -3 -2.5t5.5 -1t4.5 2t3 2.5t3 -1q3 -3 -5 -8l1 -1q3 -1 3.5 3 t6.5 4l16 -7q3 -2 8.5 -0.5t9.5 -5.5q15 0 15 -11q0 -5 -3 -13q-1 -4 -7.5 -9t-7 -13t0.5 -11t-2 -6t-5 -6.5t-2.5 -4t-2 -1t-3.5 -0.5l-10 -2q-13 -8 -11.5 -12t0.5 -6t-3 -3.5t-2.5 -4t-2.5 -1.5h-2q-3 -1 -4 -4q-5 -17 -13.5 -14.5t-10.5 11.5v-8q4 -5 5.5 -6t-7.5 -13 q-9 -2 -12 -1q-5 2 -5 -3q1 -1 1 -2v-2h-2l-8 2zM401 518l11 -2q0 1 3 1q6 0 8 -7q-4 -1 -4 3l-1 -6q4 -4 -1 -4t-5 5.5t-7 5.5t-7 -6v-6q4 -9 -1 -7t-4.5 6t0.5 10t8 7zM428 502l-14 -5q0 1 0.5 1t0.5 1l6 3l8 7h5q4 0 4 -1zM394 521q-4 0 -7.5 -0.5t-5 -0.5t-1.5 1.5 t3.5 3t6.5 3.5q4 2 7 -0.5t7 -2.5q1 -1 -2 -5l-3 1h-5zM375 623l-6 1q-9 0 -9 -6q1 -2 4 -1.5t7.5 1t4.5 2.5t-1 3zM334.5 618q0.5 -2 2 -2t4.5 0.5t4 -3.5t5 -2t3 8.5t-5.5 4t-7.5 -2t-4.5 -0.5t-1 -3zM345 637q11 0 -5 7q-10 5 -14 5q-3 0 -3 -3q0 -6 4 -6h9q1 -2 3 -2z M329 624q0 5 6 5t6.5 -1t4.5 -1.5t5 2.5q3 8 -5 4q-20 0 -20 -4l1 -3zM293 636q5 3 7 1l4 1v1q1 4 -1 4l-10 -3q-2 -2 0 -4zM318 633q-3 -2 -7 0t-7 -1q-4 -3 -13 -0.5t-9.5 5t-7.5 1.5l-14 -3q-1 0 0 -1v-1q-4 0 -5 -2q0 -2 5 -2l16 1q0 -9 5 -4l13 -3l8 1h6q9 -2 10 -1 l5 9zM431 403q-3 -1 -2 -4q1 -1 2 -1h1q3 1 2 3t-3 2zM457 402l10 2q0 10 -14 7l-9 -5h7q1 0 6 -4zM368 627q-5 9 -9 1l5 -2zM429 431q-4 -1 -2 -2.5t5 -1t1 2t-4 1.5zM475 408q-4 -1 -2 -6q1 -1 3 -1q2 1 2 3q0 4 -3 4zM412 420q21 0 21.5 -4t3.5 -4q4 0 4 1t-3 3 q-2 2 -3 1l-20 7l-9 -2q-1 -2 6 -2zM412 630h-27l-31 11q0 -8 11 -8l24 -8l10 1q13 -1 17 -1t6 2q0 3 -10 3zM408 579l5 -1q1 1 -2 2q-2 0 -3 -1zM426 568q4 -5 5 -5t-3 5q-6 9 -8 9q-1 0 -1 -1q0 -2 7 -8z" />
<glyph unicode="8" horiz-adv-x="740" d="M723 216q13 -22 13 -40q0 -14 -7 -25q-16 -27 -59 -27h-599q-44 0 -59 27q-7 11 -7 25q0 18 12 40l98 167l105 184l97 167q22 38 53 38t53 -38l97 -167l106 -184zM397 189v56h-57v-56h57zM395 286l4 235h-61l5 -235h52z" />
<glyph unicode="9" d="M377 38q-101 0 -187 49.5t-135.5 135t-49.5 187t49.5 187t135.5 135t187 49.5t186.5 -49.5t136 -135t50.5 -187t-50.5 -187t-136 -135t-186.5 -49.5zM437 658l-249 -248l249 -249l90 90l-158 159l158 158z" />
<glyph unicode=":" d="M377 781q101 0 186.5 -49.5t136 -135t50.5 -187t-50.5 -187t-136 -135t-186.5 -49.5t-187 49.5t-135.5 135t-49.5 187t49.5 187t135.5 135t187 49.5zM317 161l249 249l-249 248l-90 -90l158 -158l-158 -159z" />
<glyph unicode=";" horiz-adv-x="778" d="M227 637l80 -80l-141 -141l141 -142l-80 -80l-222 222zM551 637l222 -221l-222 -222l-80 80l140 142l-140 141z" />
<glyph unicode="&#x3c;" horiz-adv-x="349" d="M344 568l-158 -158l158 -159l-90 -90l-249 249l249 248z" />
<glyph unicode="=" horiz-adv-x="349" d="M5 251l159 159l-159 158l90 90l249 -248l-249 -249z" />
<glyph unicode="&#x3e;" horiz-adv-x="541" d="M514 745q16 -10 21 -29q2 -6 2 -12q0 -12 -8 -23l-34 -54l-166 104l35 54q10 16 29 21q6 1 12 1q12 0 23 -7zM34 261l270 430l166 -103l-270 -430zM9 129l3 91l160 -100l-81 -43l-86 -45z" />
<glyph unicode="?" horiz-adv-x="590" d="M246 510q24 36 36 68t15 53t16.5 53.5t38.5 68.5q10 14 27 17h7q13 0 25 -8q11 -8 15 -24l39 55l121 -88l-404 -557l-177 -116l56 205l182 249q-11 -11 -25 -2q-6 4 -7.5 12.5t3 14.5t12.5 7.5t15 -3.5q3 -2 5 -5zM157 175l-63 45l-28 -105zM264 515l124 172 q-14 -1 -26 7q-23 -35 -45.5 -85t-52.5 -94z" />
<glyph unicode="@" horiz-adv-x="522" d="M517 489v-171h-171v-171h-170v171h-171v171h171v170h170v-170h171z" />
<glyph unicode="A" horiz-adv-x="522" d="M517 489v-171h-512v171h341h171z" />
<glyph unicode="B" horiz-adv-x="758" d="M488 716l266 -113l-75 -176l-79 34v-359h-438v360l-82 -35l-75 176l266 113q12 -33 42 -53.5t66.5 -20.5t66 20.5t42.5 53.5z" />
<glyph unicode="C" horiz-adv-x="643" d="M615 334v1l-1 -1q-7 -11 -17 -22l-3 -3l-2 -2l-172 -172q-40 -41 -98 -41q-55 0 -97 39q-9 8 -19 20l-160 159q-41 41 -41 99t41 99l177 177q41 40 98.5 40t98.5 -40l177 -177q41 -41 41 -99q0 -42 -23 -77zM587 411q0 37 -26 62l-101 100q-5 -52 -45 -88t-93 -36 q-29 0 -55 11q23 -56 67.5 -95.5t93.5 -52.5q19 -4 39 -4q51 0 87 34l1 1q8 8 17 19q15 23 15 49zM321.5 676q-35.5 0 -62 -25.5t-26.5 -62t26.5 -62t62 -25.5t62 25.5t26.5 62t-26.5 62t-62 25.5zM83 349l55 -56q-7 31 -9 63q-1 16 -1 32q0 76 23 153l-68 -68 q-27 -26 -27 -62t27 -62zM199 522q-20 -68 -20 -135q0 -14 1 -28q9 -109 63 -171l16 -16l1 -1q8 -7 16 -12q21 -13 46 -13q35 0 62 26l84 84h-1q-25 0 -52 7q-81 21 -143 96t-73 163z" />
<glyph unicode="D" horiz-adv-x="651" d="M646 407q0 -42 -23 -77q-10 -15 -18 -23l-4 -4l-1 -1l-174 -174q-41 -40 -97 -42h-3q-56 0 -98 39q-10 9 -20 20l-162 162q-41 41 -41 100t41 100l179 179h1q41 41 99.5 41t100.5 -41l179 -179q41 -41 41 -100zM499 275l68 69q15 15 23 36h-68q-10 -73 -66 -122t-130 -49 q-82 0 -140.5 58t-58.5 140t58.5 140t140.5 58q75 0 130.5 -48.5t65.5 -121.5h67q-6 20 -22 35l-101 101l-78 78l-1 1q-7 7 -15 13q-21 12 -45 12q-6 0 -11 -1q-31 -3 -53 -25q-6 -5 -15 -14l-26 -27l-32 -32l-12 -12l-24 -25h-1l-69 -69q-27 -26 -27 -63t27 -63l101 -102 l78 -77l1 -1q8 -7 16 -12q22 -12 46 -12h10q31 3 52 25q6 5 15 13.5t27 27.5l31 32l12 12l25 25h1zM326 379q-11 0 -19.5 8t-8.5 19.5t8 19.5t20 8l140 1q-10 49 -49.5 82t-90.5 33q-59 0 -101 -42t-43 -101q1 -58 42.5 -100.5t101.5 -42.5q52 0 91.5 33t48.5 83z" />
<glyph unicode="E" horiz-adv-x="512" d="M420 674q86 -86 87 -153v-439q0 -6 -4.5 -10.5t-12.5 -4.5h-470q-6 0 -10.5 4.5t-4.5 10.5v659q0 7 4.5 12t10.5 5h261q4 0 7 -1q53 -6 132 -83zM475 98v423v4q-2 13 -21 24.5t-46 17.5q-40 9 -77 10h-18l2 16v25q0 44 -7 74q-10 34 -26 34h-1h-244v-628h438z" />
<glyph unicode="F" horiz-adv-x="512" d="M420 674q86 -86 87 -153v-439q0 -6 -4.5 -10.5t-12.5 -4.5h-470q-6 0 -10.5 4.5t-4.5 10.5v659q0 7 4.5 12t10.5 5h261q4 0 7 -1q53 -6 132 -83zM397 651q-27 29 -59 50v-1q9 -33 9 -82v-11q36 -2 68 -9q21 -5 36 -11q-22 33 -54 64zM475 98v423v4q-2 13 -21 24.5 t-46 17.5q-40 9 -77 10h-18l2 16v25q0 44 -7 74q-10 34 -26 34h-1h-244v-628h438z" />
<glyph unicode="G" horiz-adv-x="522" d="M517 414l-42 -105l-49 20l-65 -163q-11 -30 -40 -42q-15 -7 -30 -7q-14 0 -29 6l-48 18l-23 -56q-7 -19 -27 -28q-10 -5 -20 -5t-19 4l-24 10q-19 8 -27 28q-5 10 -5 19q0 10 4 19l22 56l-42 17q-29 12 -41 41q-7 15 -7 31q0 14 5 28l66 163l-56 22l41 104l101 -39 l80 202q5 14 18 19q7 3 13.5 3t13.5 -3q14 -5 19.5 -18.5t0.5 -26.5l-81 -202l125 -50l81 203q5 13 18.5 19t27.5 0.5t19.5 -19t0.5 -27.5l-81 -201z" />
<glyph unicode="H" horiz-adv-x="793" d="M788 410q0 -48 -33.5 -81.5t-80.5 -33.5q33 -33 33 -80.5t-33.5 -81.5t-81 -34t-81.5 34q0 -47 -33.5 -81t-81 -34t-81 34t-33.5 81q-33 -34 -80.5 -34t-81.5 34t-34 81.5t34 80.5q-47 0 -81 33.5t-34 81.5t34 81t81 33q-34 34 -34 81.5t34 81t81 33.5t81 -33 q0 47 33.5 81t81 34t81 -34t33.5 -81q34 33 81.5 33t81 -33.5t33.5 -81t-33 -81.5q47 0 80.5 -33t33.5 -81zM591 276l-90 91h128q18 -18 45 -19q26 0 43.5 18t17.5 43.5t-18 44t-43 18.5q-27 0 -45 -19h-128l90 91h1q27 0 44.5 18t17.5 44t-18 44t-44 18t-44 -18t-18 -45v-1 l-91 -90v128q19 18 20 45q0 26 -18.5 44t-44 18t-43.5 -18t-18 -44q0 -27 18 -45v-128l-90 90v1q0 27 -18.5 45t-44 18t-43.5 -18t-18 -44t18 -44t44 -18h1l91 -91h-128q-18 19 -45 19q-26 0 -44.5 -18.5t-18.5 -44t18.5 -43.5t44.5 -18q27 0 45 19h128l-91 -91h-1 q-26 0 -44 -18t-18 -44t18 -43.5t43.5 -17.5t44 17.5t18.5 43.5v1l90 91v-128q-18 -18 -18 -45q0 -26 18 -44t43.5 -18t44 18.5t18.5 43.5q0 27 -20 45v128l91 -91v-1q0 -26 18 -43.5t44 -17.5t44 17.5t18 43.5t-18 44t-44 18h-1z" />
<glyph unicode="I" horiz-adv-x="518" d="M295 772l-290 -618l189 117l29 -220l290 619zM340 583q-11 5 -15 16q-2 5 -2 10q0 6 3 12q5 11 16 15q5 2 10 2l12 -3q11 -5 15 -17q2 -5 2 -10q0 -6 -3 -12q-5 -10 -16 -14q-6 -2 -11 -2q-6 0 -11 3z" />
<glyph unicode="J" horiz-adv-x="611" d="M57 68q-3 2 -14.5 7t-17.5 8t-13 9q-7 8 -7 16q0 5 3 12q4 8 12.5 19.5t10.5 15.5q117 203 202 327q1 0 3.5 2.5t5 3.5t5.5 1q10 22 35 64.5t36 66.5q2 3 6.5 11.5t6.5 13t4 11.5t1 11q-4 28 -40 38q-22 6 -46 6q-16 0 -34 -3q-43 -6 -76 -21q-4 4 -2 8t2.5 5.5t5.5 5.5 l4 3q-15 0 -12 13l9 6q5 4 10.5 6.5t9 4.5t11 4.5t10.5 4t12 4.5l13 4q49 15 97 15q84 0 164 -47q8 -24 18.5 -36t29.5 -16q7 -1 22 -0.5t21 -0.5q9 -2 23.5 -10t16.5 -14q1 -2 1 -5q0 -8 -6 -20l-18 -33q-8 -16 -19 -19q-6 -2 -20.5 6.5t-20.5 14.5q-5 5 -12 18t-12 18 q-17 16 -42 16q-13 0 -28 -4l-22 -10q-4 -2 -9 -7.5t-7.5 -9.5t-7 -12t-6.5 -11q-13 -23 -35.5 -67.5t-34.5 -64.5q2 -2 2 -4.5t-0.5 -6t-0.5 -4.5q-57 -139 -164 -349q-2 -4 -6.5 -17t-9.5 -21t-10 -10q-4 -1 -8.5 -1t-9.5 1q-10 3 -25 12.5t-17 10.5z" />
<glyph unicode="K" horiz-adv-x="778" d="M521 287q193 -77 203 -87q5 -6 8 -24.5t3 -34.5v-15h-690v8q0 53 12 66q9 10 203 87q12 5 22.5 15.5t14.5 19.5l4 8q1 0 3 -1t5.5 2t3.5 12q0 6 -2 8t-5.5 2.5t-8.5 14.5t-9 41q-2 0 -4 1.5t-8.5 7.5t-10.5 15t-7 27q-1 11 -1 23q0 9 1 20l9 3q-5 9 -9.5 45t-4.5 47 q0 8 8 30.5t14 28.5q4 4 12 7t14 4h5q0 9 20 19t44 11q26 1 27.5 1t37.5 -11q10 -3 18.5 -6t14.5 -8l11 -7q4 -3 10 -10t8 -10l8 -11l9 -13q9 -13 9 -43.5t-5 -53.5l-4 -23h8q1 -12 1 -22.5t-1 -20.5q-2 -18 -6.5 -27t-9.5 -15t-9 -8l-3 -1q-5 -27 -10.5 -41t-8.5 -14.5 t-5.5 -2.5t-2.5 -8q0 -9 3.5 -12t6.5 -2l3 1q11 -32 41 -43zM202 291q-148 -58 -163 -73q-20 -20 -20 -92h-14v134l6 2q10 4 19 13.5t12 16.5l3 7q2 -1 3.5 -1.5t4.5 2t3 10.5q0 5 -2 6.5t-4.5 2t-7 12.5t-7.5 35q-2 0 -4 1t-7 6.5t-8.5 13t-5.5 23.5q-1 7 -1 16t1 19l7 2 q-8 16 -12 74v7q1 9 7.5 26t12.5 23q3 3 9.5 5.5t10.5 2.5l5 1q0 7 17 15.5t37 9.5q15 1 20 1h4q2 -1 32 -10q10 -3 18 -6l12 -6q6 -3 12 -10.5t7.5 -9.5t8 -11.5t8.5 -11.5q7 -9 7 -31v-11q-2 -13 -1 -26l-6 -34h7q1 -10 1 -19t-1 -16q-2 -16 -6 -24t-8 -13t-7 -6l-3 -1 q-4 -23 -8 -35t-7.5 -12.5t-5.5 -2t-2 -6.5q0 -8 3.5 -10.5t5.5 -1.5l3 1q1 -3 4 -8zM773 523v-30l-7 -48h7v-2v-30q-2 -18 -8 -30t-11 -15l-5 -2q-4 -23 -8.5 -35t-7.5 -12.5t-5 -2t-2 -6.5q0 -8 3 -10.5t5 -1.5l3 1q10 -27 35 -37h1v-136h-12v12q0 62 -20 80 q-13 14 -160 73l4 8q2 -1 3.5 -1.5t4.5 2t3 10.5q0 5 -2 6.5t-4.5 2t-7 12.5t-8.5 35q-2 0 -3.5 1t-6.5 6.5t-8.5 13t-5.5 23.5q-1 7 -1 16t1 19l7 2q-4 8 -8 41q-1 11 -1 17l-2 23h-1q1 8 7.5 25.5t11.5 23.5q3 3 10 5.5t12 2.5l4 1q0 7 17 15.5t37 9.5q15 1 20 1h4 q2 -1 31 -10q10 -3 18.5 -6.5t13 -6t11 -10t8 -9t8.5 -11.5t8 -12q5 -9 7 -24z" />
<glyph unicode="L" horiz-adv-x="700" d="M473 503h9q1 -11 1 -20q0 -12 -1 -23q-3 -18 -7.5 -27t-9 -15t-8.5 -8l-4 -1q-4 -27 -9.5 -41t-9 -14.5t-5.5 -2.5t-2 -8q0 -9 3 -12t6 -2l4 1q11 -32 40 -43q194 -77 203 -87q6 -6 9 -24.5t3 -34.5v-15h-690v9q0 52 11 65q10 10 204 87q12 5 22.5 15.5t14.5 19.5l3 8 q2 0 4 -1t5.5 2t3.5 12q0 6 -2.5 8t-5.5 2.5t-8 14.5t-10 41q-1 0 -3.5 1.5t-8.5 7.5t-10 15t-7 27q-1 11 -1 23q0 9 1 20l9 3q-5 9 -10 45t-5 47q0 8 8.5 30.5t15.5 28.5q4 4 11.5 7t12.5 4h6q0 9 19.5 19t44.5 11q26 1 27.5 1t37.5 -11q10 -3 18 -6t15 -8l10 -7 q5 -3 10 -10l8 -10q3 -3 9 -11.5t8 -12.5q10 -13 10 -43.5t-5 -53.5z" />
<glyph unicode="M" horiz-adv-x="701" d="M671 636l-321 -182l-319 182h640zM370 376l326 186v-379h-691v379l327 -186q9 -5 19 -5t19 5z" />
<glyph unicode="N" horiz-adv-x="701" d="M5 695h691v-571h-691v571zM588 173v473h-474v-473h474zM229 461q-27 0 -46.5 19.5t-19.5 46.5t19.5 46.5t46.5 19.5t46.5 -19.5t19.5 -46.5t-19.5 -46.5t-46.5 -19.5zM562 403v-204h-423v132l71 70l49 -49l177 177z" />
<glyph unicode="O" horiz-adv-x="727" d="M363.5 683q97.5 0 180 -36.5t130.5 -98.5t48 -134.5t-48 -134.5t-130.5 -98t-179.5 -36q-119 0 -216 54l-143 -37l51 113q-51 63 -51 139q0 73 48 134.5t130.5 98t180 36.5z" />
<glyph unicode="P" horiz-adv-x="727" d="M363.5 693q97.5 0 180 -36t130.5 -98t48 -135t-48 -135t-130.5 -97.5t-179.5 -35.5q-119 0 -216 53l-143 -37l51 114q-51 63 -51 138q0 73 48 135t130.5 98t180 36zM305 321l-105 105l105 104l-60 60l-165 -164l165 -165zM485 261l165 165l-165 164l-59 -60l104 -104 l-104 -105z" />
<glyph unicode="Q" horiz-adv-x="727" d="M363.5 693q97.5 0 180 -36t130.5 -98t48 -135t-48 -135t-130.5 -97.5t-179.5 -35.5q-119 0 -216 53l-143 -37l51 114q-51 63 -51 138q0 73 48 135t130.5 98t180 36zM386 272v49h-51v-49h51zM383 356l4 207h-54l5 -207h45z" />
<glyph unicode="R" horiz-adv-x="727" d="M363.5 693q97.5 0 180 -36t130.5 -98t48 -135t-48 -135t-130.5 -97.5t-179.5 -35.5q-119 0 -216 53l-143 -37l51 114q-51 63 -51 138q0 73 48 135t130.5 98t180 36zM389 272v49h-51v-49h51zM389 372q0 14 11 28t24 23t24.5 27.5t11.5 41.5q0 35 -26 55.5t-63 20.5 q-22 0 -41.5 -7t-27.5 -14l-8 -7l29 -36q20 17 44 17q16 0 27.5 -10t11.5 -25q0 -13 -10.5 -26.5t-23.5 -22.5t-23.5 -25.5t-10.5 -35.5v-20h51v16z" />
<glyph unicode="S" horiz-adv-x="615" d="M610 410h-75v-305h-458v307l-72 -2l302 302l157 -157v120h67v-187zM307 150v179h-149v-179h149zM453 226v104h-99v-104h99z" />
<glyph unicode="T" horiz-adv-x="675" d="M620 739q22 0 36.5 -14.5t14.5 -36.5v-563q0 -22 -15 -36.5t-36 -14.5h-564q-22 0 -36.5 14.5t-14.5 36.5v563q0 22 15 36.5t36 14.5h564zM209 133v359h-103v-359h103zM157.5 530q26.5 0 45.5 19t19 45.5t-19 45t-45.5 18.5t-45 -18.5t-18.5 -45t18.5 -45.5t45 -19z M567 133v218q0 35 -19.5 69.5t-49.5 51.5q-29 15 -67 16q-4 1 -7 1q-34 0 -62 -13v16h-102v-359h102v229l42 21q8 4 22 3.5t21 -4.5q6 -3 12 -13.5t6 -17.5v-218h102z" />
<glyph unicode="U" horiz-adv-x="766" d="M699 433q51 -9 61 -14q4 -2 -2 -1q-3 1 -16 4q-48 12 -127 18l-10 1q-1 -3 -3 -8q-20 -48 -74 -69q-24 -9 -78 -17q-4 0 -13 -1q4 -1 9 -4q14 -10 23 -30q4 -10 5 -73.5t3 -68.5q5 -12 18 -20q9 -5 8.5 -9t-15.5 -4t-26 5q-16 8 -20 20.5t-4 58.5q0 37 -2 50t-7 17 q-2 3 -3 -2q0 -6 -1 -47q0 -62 1.5 -77.5t10.5 -25.5q8 -10 5 -14q-2 -3 -6 -3q-3 0 -9 2q-16 4 -27 16q-10 10 -11.5 22t-2.5 69l-1 67l-5 1h-6v-51q0 -66 -3.5 -85t-17.5 -29q-8 -7 -19 -11q-7 -1 -11 -1q-3 0 -5 1q-2 2 -1 6.5t4 6.5q4 4 7 9q4 9 5.5 23t1.5 63 q-1 62 -3 63q-3 -2 -6.5 -10.5t-5 -62.5t-3.5 -59q-12 -20 -44 -23q-13 -1 -16 2q-4 6 7 12q12 6 19 20q2 5 2 63v23q-8 -2 -20 -3q-16 -3 -31 0q-28 3 -46 21q-9 9 -14 19l-10 21q-8 17 -35 39q-9 7 -7 12t14 5q14 0 29 -10.5t24 -25.5q12 -20 32 -30q10 -4 26 -4t33 5 q6 2 10 4q9 26 29 37h2q-23 4 -37 7q-16 4 -22 4q-24 3 -51 22q-37 23 -53 61l-6 -1q-78 -6 -127 -18l-19 -3h1q9 5 62 14q47 8 88 9q-3 8 -6 18h-20q-63 -1 -109 -9l-16 -1q2 1 6 2q24 5 79 9q19 1 40 1h20q-5 17 -8 38q-1 13 -1 26q0 58 31 98q-1 1 -2 5q-5 15 -5 33.5 t5 39.5q4 15 8 18q2 1 7 1t12 -1q23 -4 45 -17q13 -6 27 -15q24 8 53 13q14 3 47 4h16q21 0 34 -2q34 -3 63 -14q14 9 27 15q23 11 45 17q7 2 11.5 2t7.5 -2q4 -3 8 -19q5 -21 5 -39t-5 -33q10 -12 18 -29q10 -19 12.5 -33t2.5 -44q0 -35 -3 -52l-2 -9h22q23 0 44 -1 q55 -4 80 -10l6 -2q-3 0 -17 2q-45 8 -108 8q-14 0 -27 1q-1 -7 -1 -9q-1 -3 -1 -5q-1 0 -3 -4h5q41 -2 89 -9zM545 433q9 22 9 49v6q-1 17 -6 28q-16 33 -46 42q-10 3 -37 3q-22 0 -55 -2q-14 -1 -29 -1l-29 1q-33 2 -55 2q-27 0 -37 -3q-20 -7 -36 -26q-15 -19 -17 -45v-8 q0 -39 26 -63q29 -27 98 -34q7 -1 32 -1q12 0 28 1q49 0 61 1q37 4 57 14q10 4 21 15.5t15 20.5zM302 518h-4q-19 0 -26 -22q-3 -9 -3 -17q0 -15 11 -27q9 -10 18 -10q6 0 12 4q16 10 16 33q0 15 -7 26t-17 13zM468 515q-3 1 -5 1q-16 0 -24 -23q-3 -9 -3 -18q0 -14 10 -25 q9 -10 19 -10q5 0 11 4q17 9 17 33q0 15 -7 25.5t-18 12.5zM394 423q-1 -4 -6 -6q-10 -5 -20 4q-8 6 -9 1q0 -3 4 -7q5 -5 10 -7q3 -1 7 -1q5 0 10 2q12 5 12 14q0 4 -5 3q-2 -1 -3 -3zM386 437q5 4 5 8t-4 8q-3 3 -6 3h-1q-5 -1 -8 -4q-1 -2 -1 -5q0 -4 2 -9q4 -3 8 -3 q3 0 5 2z" />
<glyph unicode="V" horiz-adv-x="669" d="M482 592q76 0 129.5 -53.5t53.5 -129t-53.5 -129t-129.5 -53.5q-45 0 -83.5 20.5t-63.5 56.5q-26 -36 -65 -56.5t-83 -20.5q-76 0 -129 53.5t-53 129t53.5 129t128.5 53.5q44 0 83 -20.5t65 -56.5q26 36 64 56.5t83 20.5zM482.5 260q61.5 0 105.5 44t44 105.5t-44 105.5 t-105.5 44t-105 -44t-43.5 -105.5t43.5 -105.5t105 -44z" />
<glyph unicode="W" horiz-adv-x="451" d="M388 490h58v-311h-441v311h58v73q0 68 48 115t115 47t114.5 -47t47.5 -115v-73zM115 563v-73h222v73q0 46 -33 78.5t-78.5 32.5t-78 -32.5t-32.5 -78.5z" />
<glyph unicode="[" horiz-adv-x="711" d="M355.5 667q95.5 0 176 -31.5t128 -85t47.5 -117.5q0 -62 -48 -117q-28 40 -80.5 63.5t-117.5 23.5q-93 0 -156.5 -44.5t-63.5 -109.5q0 -18 6 -37q-2 0 -6 1t-7 2q-33 -33 -76.5 -53t-71.5 -24l-28 -4q58 49 79 117q-61 33 -96.5 80.5t-35.5 101.5q0 63 47 117 t127.5 85.5t176 31.5zM655 249q0 -30 -19.5 -56.5t-53.5 -44.5q12 -39 44 -65l-18 3q-10 1 -36 12.5t-44 29.5q-34 -8 -67 -8q-81 0 -138 38t-57 91t57 91t137.5 38t137.5 -38t57 -91z" />
<glyph unicode="\" horiz-adv-x="599" d="M259 669q-150 -95 -150 -232q0 -44 14 -44l10 3q12 4 20 4q43 0 72 -31t29 -77q0 -45 -31.5 -76t-75.5 -31q-62 0 -102 51t-40 128q0 87 34.5 158.5t104 130t88.5 58.5q13 0 21.5 -13t8.5 -22zM591 669q-151 -96 -151 -234q0 -42 15 -42l10 3q12 4 19 4q42 0 72 -31 t30 -77q0 -45 -31.5 -76t-75.5 -31q-62 0 -102 51t-40 128q0 87 35 159.5t104 130t88 57.5q13 0 21.5 -13t8.5 -22z" />
<glyph unicode="]" horiz-adv-x="742" d="M703 492q13 16 23 16q4 0 7 -2q4 -4 4 -11q0 -12 -11 -34q-9 -19 -27 -34.5t-32 -24t-43.5 -22t-40.5 -20.5v-115q0 -8 -5.5 -24t-15.5 -36.5t-31.5 -35.5t-49.5 -15q-53 0 -79.5 22.5t-26.5 42.5v84q12 -3 26 -3q46 0 87 25t57 55q9 21 9 37q0 10 -4 18q-9 13 -26 13 q-22 0 -55 -29q-10 -9 -26 -9q-14 0 -30.5 7t-25.5 17l-5 4q19 12 62 12h115q14 0 71 22.5t73 39.5zM523 371q-16 -37 -69 -57q-25 -11 -51 -11t-52 11v-115q0 -15 -20.5 -30.5t-47.5 -15.5q-31 0 -73.5 32.5t-42.5 59.5v126q-105 41 -130 70q-2 3 -6 8q-17 22 -23 31 q-3 6 -3 12q0 4 2 9q3 7 25 -5l55 -32q33 -19 52 -23q32 -7 82 -11q41 -4 67 -4h11h5q36 0 68 -30q11 -10 29 -18t41 -10q4 -1 6 -1q20 0 36 15q28 24 39 24q7 0 8 -7q1 -9 -8 -28zM483 468q-33 0 -57.5 23.5t-24.5 57t24.5 57.5t57.5 24t56.5 -24t23.5 -57.5t-23.5 -57 t-56.5 -23.5zM270 468q-33 0 -57.5 23.5t-24.5 57t24.5 57.5t57.5 24t56.5 -24t23.5 -57.5t-23.5 -57t-56.5 -23.5z" />
<glyph unicode="^" horiz-adv-x="547" d="M461 242q35 0 58.5 -24t23.5 -59t-25 -60t-60 -25h-185q-112 0 -190 84.5t-78 203.5v298q0 35 24.5 60t59.5 25t58.5 -24.5t23.5 -60.5v-82h288q35 0 59.5 -25t24.5 -59.5t-24.5 -59t-59.5 -24.5h-288v-48q0 -48 32.5 -84t72.5 -36h185z" />
<glyph unicode="_" horiz-adv-x="816" d="M433 103q-15 -1 -26 -1t-24 1l-68 -86l-16 5q-30 8 -56 20l-17 7l4 109q-22 15 -40 33l-105 -22l-10 13q-15 24 -30 52l-7 16l72 80q-6 26 -10 52l-95 51l2 17q2 28 10 59l5 16l106 16q11 24 28 45l-41 100l12 12q20 19 46 38l13 10l93 -57q24 10 49 18l32 103l18 1 q20 2 30 2t30 -2l18 -1l33 -104q24 -7 47 -18l93 58l14 -10q26 -17 46 -38l12 -12l-42 -103q14 -20 25 -42l110 -16l5 -16q8 -32 10 -59l2 -17l-99 -52q-2 -26 -9 -48l75 -82l-7 -17q-14 -30 -30 -52l-10 -13l-108 22q-17 -17 -38 -31l5 -111l-17 -7q-28 -12 -56 -20l-16 -5 zM520 76q8 3 17 6l-3 104l11 9q28 18 50 43l10 10l104 -22q4 7 8 16l-71 77l5 15q9 30 11 63l1 16l93 49q-1 9 -3 17l-105 16l-5 13q-12 30 -33 56l-9 11l40 98l-14 12l-88 -55l-14 6q-29 15 -62 23l-13 4l-33 99h-9h-9l-31 -99l-16 -4q-33 -7 -63 -22l-13 -7l-87 55 q-8 -6 -14 -12l39 -94l-9 -13q-22 -28 -35 -59l-6 -13l-101 -15q-2 -9 -3 -17l91 -48v-15q2 -36 12 -67l4 -15l-68 -75q4 -8 9 -16l100 22l10 -11q24 -26 52 -43l13 -9l-3 -103l16 -6l63 82l16 -2q17 -2 32 -2t34 3l15 2zM549 288l13 -22l-88 -57l-32 48q-18 -4 -35 -4 q-65 0 -111 46t-46 110.5t46 110.5t110.5 46t110.5 -46t46 -110q0 -53 -32 -96zM489 280l3 2l-25 39l14 14q31 31 31 75t-30.5 74.5t-75 30.5t-75 -30.5t-30.5 -74.5t30.5 -75t75.5 -31q18 0 37 7l20 7z" />
<glyph unicode="`" horiz-adv-x="761" d="M660 396q-2 -38 -12 -70l73 -80q-13 -28 -28 -49l-106 23q-25 -28 -56 -47l5 -107q-26 -11 -53 -20l-65 85q-22 -3 -39 -3q-15 0 -35 2l-65 -84q-28 8 -54 20l4 105q-32 20 -57 48l-103 -21q-14 20 -28 48l71 78q-12 35 -14 74l-93 49q2 25 10 56l104 14q14 35 38 66 l-39 97q18 18 43 36l89 -57q34 17 71 26l31 100q19 2 29 2q8 0 28 -2l32 -101q37 -8 69 -26l91 58q24 -17 43 -36l-41 -100q23 -30 36 -63l107 -14q7 -30 11 -56zM500 274l-28 42q38 39 38 93.5t-38.5 93t-92.5 38.5t-92.5 -38.5t-38.5 -93t38.5 -92.5t92.5 -38q24 0 47 9 l29 -43z" />
<glyph unicode="a" horiz-adv-x="615" d="M565 443q-36 -42 -89 -56q-25 -7 -49 -7q-27 0 -53 9l-244 -279q-19 -22 -48 -24h-6q-26 0 -46 18q-23 19 -25 48v5q0 26 18 47l243 279q-19 36 -19 77q0 12 2 24q7 55 44 97q34 39 83 54q26 8 52 8q23 0 45 -6l-93 -108l31 -89l92 -18l93 109q14 -32 14 -68 q0 -14 -2 -29q-8 -52 -43 -91z" />
<glyph unicode="b" horiz-adv-x="645" d="M529 700l55 -25l-53 -28l-7 -59l-43 41l-59 -12l27 55l-30 52l59 -9l41 45zM610 353l30 -14l-30 -14l-4 -32l-22 22l-32 -5l14 29l-14 29l32 -6l22 23zM66 623l7 25l-17 20l26 1l14 22l9 -24l25 -8l-20 -15l2 -27l-22 16zM207 550l-6 38l-35 16l34 18l5 38l26 -27l38 8 l-17 -35l18 -34l-38 7zM380.5 493.5q22.5 -14.5 36.5 -30.5q10 -14 10 -26q0 -6 -3 -11l-248 -395h-171l296 472q7 10 24 10q6 0 13 -1q20 -4 42.5 -18.5zM288 258l113 180q-1 3 -5 9q-10 12 -28 25q-17 10 -32 14q-5 2 -9 2q-3 0 -5 -1l-113 -180q19 -2 44 -17.5t35 -31.5z " />
<glyph unicode="c" d="M377 781q101 0 186.5 -49.5t136 -135t50.5 -187t-50.5 -187t-136 -135t-186.5 -49.5t-187 49.5t-135.5 135t-49.5 187t49.5 187t135.5 135t187 49.5zM377 82q30 0 51 21t21 50.5t-21 51t-51 21.5t-51 -21.5t-21 -51t21 -50.5t51 -21zM377 280l202 167h-90v225h-224v-225 h-89z" />
<glyph unicode="d" horiz-adv-x="735" d="M684 244q-58 -125 -183 -170q-65 -27 -134 -27q-135 0 -235.5 89.5t-117.5 221.5l-3 -25q-1 18 -1 36q0 22 2 43q1 19 3 38l-10 -26q10 60 27 96q9 24 20 45v13q0 31 8 56q9 29 19 40l10 10v-1q1 -20 15 -42q50 54 118 85t145 31q72 0 136 -27.5t113 -75.5q39 -29 57 -73 l1 -1v6q0 20 -12 52q0 1 3 -1t11 -16.5t18 -38.5q6 -17 13 -51.5t11 -60.5l3 -26l8 54q2 -19 2 -38q0 -65 -19 -137q-10 -41 -28 -79zM367 733q-137 0 -234 -97q-6 -5 -13 -13q7 -7 14 -12q3 -1 5 0q18 4 41 4q5 0 17 -1t16 0q28 36 86 42l10 -1q1 0 0 -1q-40 -23 -49 -68 q15 -32 41 -32q55 0 57 -5v-3v-2q0 -18 -13 -28l-15 -10q-16 -9 -29 -19t-14 -13q0 -1 -1 -1q4 -9 5 -21q3 -12 1 -16v-13q-18 9 -39 12q-9 -3 -14.5 -11t-5.5 -15q0 -9 2 -15t11 -17t26 -23q16 -9 32.5 -10.5t26 1.5t23 8.5t18.5 6.5q12 3 22 3q11 0 20 -3q18 -7 27 -19 q8 -8 3.5 -16.5t-14.5 -5.5q-5 -1 -6 0.5t-6 -1.5t-6.5 -3.5t-7.5 -4.5l-8 -4l-9.5 -6.5t-9.5 -7.5q-19 -12 -49 -17q-11 -2 -22 -2q-19 0 -38 5q2 -1 6 -5l28 -17q10 -7 32.5 -18.5t39.5 -15t41 -3.5t44.5 9t44 29.5t44.5 51.5q8 15 5 -2q-1 -8 -6 -28l-4 -20q25 16 34 65 q5 29 5 56q0 19 -2 37q15 -7 25 -30q9 28 10 71v8q0 38 -8 63q8 -3 17 -11.5t13 -16.5l4 -8q-5 22 -13 41t-18.5 33t-23.5 25.5t-25 19.5t-24.5 14t-22.5 9.5t-18.5 6t-12.5 2.5l-4 1q15 5 33.5 7.5t29.5 2.5l10 1q-4 5 -16.5 11.5t-26 10.5t-27.5 7t-22 5l-9 2q-1 0 8 1 t31 -0.5t48 -6.5q-79 47 -171 47z" />
<glyph unicode="e" horiz-adv-x="666" d="M644 761q18 -20 18 -56t-15 -74q-2 -6 -6 -3q-3 1 -2 5q13 39 13 66q0 33 -20 50q-17 13 -44 14h-4q-25 0 -52 -9q-29 -11 -53.5 -22.5t-47.5 -25.5q97 -26 154 -99t57 -175q0 -4 0.5 -16t0.5 -21h-390q2 -52 28 -77t70 -25q70 0 83 64h205q-29 -92 -105.5 -147 t-186.5 -55q-32 0 -61 4q-44 -29 -85.5 -47t-84.5 -24q-11 -2 -21 -2q-28 0 -48 13q-35 22 -40 70q-1 13 -1 25q0 36 10 70q14 48 38 101q47 97 115 171.5t120 106.5q6 3 0 6q-1 1 -4 0q-163 -85 -248 -217v1v1q0 125 93 210q81 73 208 73q31 0 60 -5q31 17 61 31.5t66 26.5 q32 10 61 10h7q32 -2 51 -19zM267 162q-70 13 -120 52q-37 28 -63 67q-29 -66 -29 -106q0 -32 19 -46q18 -14 47 -14h7q35 2 70 15t69 32zM253 485h181q0 43 -25 66t-64 23q-38 0 -65 -22.5t-27 -66.5z" />
<glyph unicode="f" horiz-adv-x="671" d="M335 767q144 0 238 -96.5t94 -251.5q0 -93 -41 -173.5t-118.5 -130.5t-172.5 -50t-171.5 50t-117.5 130.5t-41 173.5q0 156 92.5 252t237.5 96zM335 139q78 0 106 95q19 68 20 191q0 97 -15 161q-27 110 -110 110h-1q-70 0 -98 -72q-17 -48 -24 -123q-2 -33 -2 -76 q0 -62 4 -102q4 -49 14 -86q28 -98 106 -98z" />
<glyph unicode="g" horiz-adv-x="714" d="M363.5 598q55.5 0 95 -37t39.5 -88t-39.5 -87.5t-95 -36.5t-95 36.5t-39.5 87.5t39.5 88t95 37zM702 474q6 -31 6 -61q0 -41 -11 -79q-33 -105 -115.5 -174t-194.5 -71h-1q-21 -6 -45 -6q-47 0 -107 22q-89 33 -152 108q-41 47 -64 123q-13 42 -13 84q0 56 24 112 q36 77 75 118q35 38 66 38h5v-2v-1q0 11 2 21q68 40 145 48q21 1 40 1q55 0 105 -15q67 -22 120 -67.5t76 -106.5q-1 1 -2.5 4.5t-2.5 6.5q34 -48 44 -103zM101 229q48 -55 116 -88q-11 11 -21 24l-1 2q-8 10 -12.5 16.5t-9.5 20t-1.5 27t15.5 26.5q5 6 17 14l5 5l64 58 q-43 30 -64 74q-16 34 -16 74q0 11 1 23q-5 11 -10 18l-13 20q-12 16 -17 25q-23 39 -29 68q-37 -37 -73 -113q-21 -51 -21 -102q0 -39 12 -78q20 -70 58 -114zM673 341q11 37 11 72q0 10 -1 20q-5 0 -11 2l-4 1l-3 2q-48 33 -124 48v-11q0 -63 -43 -113q-39 -53 -124 -58 l-127 -98q47 -69 142 -91q98 3 175.5 64.5t108.5 161.5zM679 460q10 -3 12 4q1 3 1 6q0 6 -3 14l-19 63q5 -17 5 -26q0 -5 -2 -7q-4 -4 -14 -3q-44 12 -102 21q-6 1 -20.5 2.5t-26 3.5t-20.5 6q-7 3 -13 8q-4 4 -12.5 13.5t-14.5 15.5q-31 24 -67 31q-12 3 -24 3 q-25 0 -52 -11q-40 -15 -70 -57q-7 -6 -11 -3.5t-6 10.5q-1 7 -22 51t-22 75v-2v-3h-6q-22 0 -22 -21q0 -12 8 -32q7 -18 19 -41q5 -8 16 -22.5t15 -21.5q7 -11 13 -29q-1 -11 -1 -21q0 -40 18 -74q22 -43 69 -69l12 -6q1 -2 -7 -8l-2 -2l-4 -3l-14 -11l-65 -57q-1 -2 -5 -5 l-8 -6q-4 -3 -6 -7q-10 -9 -9 -20.5t4.5 -17.5t14.5 -20q37 -47 67 -57q6 -3 11 -3q3 -1 6 -1q1 1 2 1v-1l1 1q-50 28 -80 74q-5 6 -5 12q0 9 12 18l134 105q80 2 112 47q39 45 39 101q0 19 -5 40q109 -17 169 -58z" />
<glyph unicode="h" horiz-adv-x="647" d="M324 688q132 0 225 -93.5t93 -225t-93 -225t-225.5 -93.5t-225.5 93.5t-93 225.5q0 110 67 195t171 112l-1 5q-1 4 0 8q-13 4 -21.5 15.5t-8.5 25.5q0 17 12.5 30t30 13t30.5 -12.5t13 -30.5q0 -20 -16 -34q2 -3 3 -7l1 -5q20 3 38 3zM329 612q-19 0 -38 -4l-2 -15h6 q16 0 27.5 -11.5t11.5 -27.5q0 -13 -8.5 -23.5t-20.5 -13.5l30 -66h-2q15 -1 29 -8l122 105l-1 -2l-87 -131l4 -8l72 -1q-1 3 -1 5q0 16 11.5 27.5t27.5 11.5q14 0 24.5 -9t13.5 -22l15 6q-18 81 -83.5 134t-150.5 53zM221 731q0 13 10 23.5t23.5 10.5t24 -10.5t10.5 -23.5 q0 -17 -14 -26q-8 5 -16 3q-9 -2 -14 -10q-10 3 -17 12.5t-7 20.5zM90 373q0 -20 3 -41l21 -2q-1 3 -1 5q0 16 11 27.5t28 11.5q13 0 22.5 -8t13.5 -19l68 31q0 16 8 31l-1 -1l-30 31l40 -15l-2 -4q11 15 29 23h-2l2 73q-3 -1 -5 -1q-16 0 -27.5 12t-11.5 27q0 13 7.5 23.5 t19.5 13.5l-8 15q-81 -18 -133 -83.5t-52 -149.5zM329 133q24 0 46 4v18h-6q-16 0 -27.5 11t-11.5 28q0 13 8 23t21 13l-31 68q-14 1 -28 7l-116 -100l-6 -5l88 135q-2 4 -3 7l-74 1q1 -4 1 -8q0 -16 -11 -27.5t-27 -11.5q-13 0 -24 8.5t-14 22.5l-18 -10q18 -80 83.5 -132 t149.5 -52zM388 140q79 19 129.5 84.5t50.5 148.5q0 20 -3 41l-16 3v-6q0 -15 -11.5 -26.5t-27.5 -11.5q-13 0 -23 7.5t-14 18.5l-65 -29q-1 -14 -8 -28l29 -34l-39 18q-11 -13 -28 -21h2v-74q3 1 5 1q16 0 27.5 -11.5t11.5 -26.5q0 -13 -8.5 -24t-21.5 -14z" />
<glyph unicode="i" horiz-adv-x="701" d="M350 607q42 0 93 -20.5t94 -49.5t79.5 -57.5t58.5 -49.5l21 -20l-22 -22q-15 -13 -57 -47t-81.5 -60t-91.5 -47.5t-94 -21.5q-53 0 -109 20.5t-96.5 49.5t-73 58t-49.5 49l-17 21q6 8 17.5 21t48.5 47t75 60t94.5 47.5t109.5 21.5zM350.5 287q50.5 0 87 35.5t36.5 87 t-36.5 87t-87 35.5t-87 -35.5t-36.5 -87t36.5 -87t87 -35.5zM351 481q30 0 51 -21t21 -50.5t-21 -50.5t-51 -21t-51 21t-21 50.5t21 50.5t51 21z" />
<glyph unicode="j" horiz-adv-x="701" d="M234 370l-88 -88q-38 25 -73 57t-51 51l-17 20q6 8 17.5 21t48.5 47t75 60t94.5 47.5t109.5 21.5q44 0 100 -23l-59 -59q-22 7 -41 7q-50 0 -86.5 -35.5t-36.5 -86.5q0 -20 7 -40zM543 532q39 -25 76.5 -55.5t57.5 -48.5l19 -18l-22 -22q-15 -13 -57 -47t-81.5 -60 t-91.5 -47.5t-94 -21.5q-52 0 -107 20l63 63q22 -8 44 -8q51 0 87.5 35.5t36.5 87.5q0 23 -9 45zM595 693l36 -36l-530 -529l-35 36z" />
<glyph unicode="k" horiz-adv-x="672" d="M563 463q45 -8 75 -43.5t30 -81.5q0 -53 -37.5 -90.5t-90.5 -37.5h-407q-53 0 -90.5 37.5t-37.5 90.5q0 47 31 82.5t77 43.5q-2 8 -2 15q0 34 24 58t59 24q36 0 60 -26q17 46 58 74.5t91 28.5q67 0 113.5 -46.5t46.5 -113.5v-15z" />
<glyph unicode="l" horiz-adv-x="723" d="M159 184q-63 0 -108.5 45t-45.5 109q0 50 30 90t76 55q2 43 33 73.5t75 30.5q27 0 51 -13q25 41 67 65.5t92 24.5q76 0 130 -53t55 -129q46 -15 75.5 -54.5t29.5 -89.5q0 -63 -45 -108.5t-109 -45.5h-406zM584 438q-10 2 -16 10t-5 18v12q0 56 -39.5 95t-94.5 39 q-43 0 -77 -24t-49 -63q-5 -13 -19 -15.5t-24 7.5q-16 18 -41 19q-24 0 -40.5 -16.5t-16.5 -40.5q0 -5 1 -11q2 -10 -4 -19t-17 -11q-37 -6 -61.5 -34t-24.5 -66q0 -43 30.5 -72.5t72.5 -29.5h406q42 0 72.5 29.5t30.5 72.5q0 37 -24 65t-60 35z" />
<glyph unicode="m" horiz-adv-x="672" d="M563 463q45 -8 75 -43.5t30 -81.5q0 -53 -37.5 -90.5t-90.5 -37.5h-62l18 17q15 15 15 36.5t-15 36.5l-14 14q-16 16 -38 17h-2v11q0 22 -15 36.5t-36 14.5h-84q-22 0 -36.5 -14.5t-14.5 -36.5v-11h-2q-22 0 -38 -17l-14 -14q-15 -16 -15 -37t15 -36l18 -17h-87 q-53 0 -90.5 37.5t-37.5 90.5q0 47 31 82.5t77 43.5q-2 8 -2 15q0 34 24 58t59 24q36 0 60 -26q17 46 58 74.5t91 28.5q67 0 113.5 -46.5t46.5 -113.5v-15zM478 282q7 -7 7 -18t-7 -18l-110 -111q-8 -8 -18.5 -8t-18.5 8l-111 111q-7 7 -7 17.5t7 18.5l14 14q7 8 17 9t16 -5 t10.5 -3t4.5 13v32q0 11 7.5 18.5t17.5 7.5h84q10 0 18 -7.5t8 -18.5v-32q0 -10 4 -13t10 3t16 5t17 -9z" />
<glyph unicode="n" horiz-adv-x="672" d="M563 463q45 -8 75 -43.5t30 -81.5q0 -53 -37.5 -90.5t-90.5 -37.5h-34q5 10 5 21q0 22 -15 36l-111 112q-14 14 -35.5 14t-36.5 -14l-111 -111q-14 -15 -15 -37q0 -11 6 -21h-60q-53 0 -90.5 37.5t-37.5 90.5q0 47 31 82.5t77 43.5q-2 8 -2 15q0 34 24 58t59 24 q36 0 60 -26q17 46 58 74.5t91 28.5q67 0 113.5 -46.5t46.5 -113.5v-15zM368 360l110 -110q7 -7 7 -18t-7 -19l-14 -13q-7 -8 -17 -9.5t-16 5t-10 3.5t-4 -15v-31q0 -10 -8 -18t-18 -8h-84q-10 0 -17.5 7.5t-7.5 18.5v31q0 11 -4.5 14.5t-10.5 -3t-15.5 -5.5t-17.5 10 l-14 13q-7 8 -7 19t7 18l111 110q8 7 18.5 7t18.5 -7z" />
<glyph unicode="o" horiz-adv-x="394" d="M197 729q79 0 135.5 -56t56.5 -135q0 -47 -48 -163.5t-96 -208.5l-48 -92l-20 39l-47 92q-33 67 -58 124.5t-46 118t-21 90.5q0 80 56.5 135.5t135.5 55.5zM197.5 445q38.5 0 65 27.5t26.5 65t-26.5 65t-65 27.5t-65.5 -27.5t-27 -65t27 -65t65.5 -27.5z" />
<glyph unicode="p" horiz-adv-x="297" d="M5 509h115l173 141v-485l-173 141h-115v203z" />
<glyph unicode="q" horiz-adv-x="414" d="M5 509h115l173 141v-485l-173 141h-115v203zM358 532q51 -51 52 -124q0 -70 -52 -120q-7 -8 -17.5 -8t-18 7.5t-7.5 18t8 18.5q36 36 36 85q0 50 -36 87q-7 7 -7.5 17.5t6.5 18.5q8 8 17 8h1q11 -1 18 -8z" />
<glyph unicode="r" horiz-adv-x="497" d="M5 509h115l173 141v-485l-173 141h-115v203zM358 532q51 -51 52 -124q0 -70 -52 -120q-7 -8 -17.5 -8t-18 7.5t-7.5 18t8 18.5q36 36 36 85q0 50 -36 87q-7 7 -7.5 17.5t7 18.5t18 7.5t17.5 -7.5zM418 591q75 -75 75 -181t-75 -182q-8 -7 -18.5 -7t-18 8t-7.5 18t7 18 q60 59 60 144.5t-60 145.5q-7 7 -7 18t7.5 18t18 7t18.5 -7z" />
<glyph unicode="s" horiz-adv-x="576" d="M5 509h115l173 141v-485l-173 141h-115v203zM358 532q51 -51 52 -124q0 -70 -52 -120q-7 -8 -17.5 -8t-18 7.5t-7.5 18t8 18.5q36 36 36 85q0 50 -36 87q-7 7 -7.5 17.5t7 18.5t18 7.5t17.5 -7.5zM418 591q75 -75 75 -181t-75 -182q-8 -7 -18.5 -7t-18 8t-7.5 18t7 18 q60 59 60 144.5t-60 145.5q-7 7 -7 18t7.5 18t18 7t18.5 -7zM473 646q46 -46 72 -107t26 -129t-26 -129.5t-72 -107.5q-7 -8 -18 -8t-18.5 7.5t-7.5 18.5t8 18q83 83 83 200.5t-83 200.5q-8 7 -8 18t7.5 18.5t18.5 7.5t18 -8z" />
<glyph unicode="t" horiz-adv-x="481" d="M338 410l138 -220l-19 -86l-106 24l11 48l-36 8l17 79l-48 10l7 34l-63 15l8 35l-21 -12l-5 1l-10 18q-15 -2 -29 -2q-37 0 -72 14q-49 21 -77 67q-28 43 -28 92q0 20 5 41q16 71 77 110q43 29 92 29q20 0 41 -5q72 -16 111 -77q27 -44 27 -93v-10q-3 -54 -35 -97z M148 590q14 9 17 24q1 4 1 8q0 11 -6 20q-8 13 -24 17q-4 1 -9 1q-10 0 -19 -6q-13 -9 -16 -24q-2 -5 -2 -9q0 -10 6 -19q8 -13 24 -16q4 -2 8 -2q11 0 20 6z" />
<glyph unicode="u" horiz-adv-x="669" d="M136 261l529 529v-660h-660zM445.5 551q8.5 8 16.5 0l30 -30q9 -8 1 -17q-4 -3 -9.5 -3t-8.5 3l-30 30q-8 9 0.5 17zM404 510q-9 -8 0 -17l56 -56q3 -3 8 -3t8 4q9 8 0 17l-55 55q-8 8 -17 0zM363 469q9 8 17 0l30 -30q9 -8 0 -17q-3 -3 -8.5 -3t-8.5 3l-29 30 q-10 9 -1 17zM322 428q9 8 17 0l30 -30q9 -9 0 -17q-3 -3 -8.5 -3t-8.5 3l-29 30q-10 9 -1 17zM281 386.5q-9 -8.5 1 -16.5l54 -56q4 -3 9 -3t8 3q8 9 0 18l-55 55q-8 8 -17 -0.5zM230 191q-4 -3 -8.5 -3t-8.5 3l-55 56q-4 4 -4 8t4 9q9 8 17 -1l55 -54q8 -10 0 -18z M246 258q-3 -3 -8.5 -3t-8.5 3l-30 30q-4 4 -4 8t5 8q8 9 16 1l30 -30q8 -9 0 -17zM287 299q-3 -3 -8.5 -3t-8.5 3l-29 30q-5 4 -5 8t4 9q9 8 17 0l30 -30q8 -9 0 -17zM537 258v222l-223 -222h223zM534 545q-4 -3 -9.5 -3t-8.5 3l-30 29q-4 4 -4 9q0 4 4 9q9 8 17 0l31 -30 q8 -8 0 -17zM599 561q5 4 5 8t-5 9l-54 55q-5 4 -9 4t-8.5 -4t-4.5 -9q0 -4 4 -8l56 -55q3 -4 8 -4t8 4z" />
<glyph unicode="v" horiz-adv-x="693" d="M496 717q87 -42 139.5 -125t52.5 -182q0 -93 -45.5 -171.5t-124.5 -124t-171.5 -45.5t-171.5 45.5t-124.5 123.5t-45.5 172q0 100 53 182.5t140 124.5q11 5 22 5q9 0 17 -2q20 -7 29 -26q5 -11 5 -23q0 -8 -3 -17q-7 -20 -25 -29q-61 -30 -98 -88t-37 -127q0 -99 70 -169 t168 -70q99 0 169.5 69.5t70.5 169.5q0 70 -37 127.5t-98 87.5q-18 9 -25 29q-4 9 -4 18q0 11 5 22q9 19 29 26q9 2 17 2q12 0 23 -5zM347 465q-21 0 -36.5 15t-15.5 36v240q0 20 15.5 35.5t36.5 15.5t35.5 -15.5t14.5 -35.5v-240q0 -22 -14.5 -36.5t-35.5 -14.5z" />
<glyph unicode="w" horiz-adv-x="668" d="M446 490v-311h-441v311h334v73q0 68 47.5 115t114.5 47t115 -47t48 -115v-73h-52v73q0 46 -32.5 78.5t-78 32.5t-78.5 -32.5t-33 -78.5v-73h56z" />
<glyph unicode="x" horiz-adv-x="529" d="M521 575l-14 -57q-4 -15 -4 -29q0 -11 2 -21l12 -67q2 -11 -4 -17t-16 -4l-111 17q-12 2 -23 2q-14 0 -28 -3l-103 -18q-13 -2 -25.5 -2t-25.5 2l-31 5l-69 329q0 1 -1 1l101 -16q12 -2 23 -2q14 0 27 3l104 19q13 2 26 2t25 -2l95 -17q10 -2 19.5 -10.5t11.5 -18.5 l10 -45q2 -11 2 -23q0 -14 -3 -28zM26 726q2 1 5 1q7 0 13 -5q9 -5 11 -15l151 -712h-52l-148 701q-1 3 -1 7q0 6 4 12q6 9 17 11z" />
<glyph unicode="y" horiz-adv-x="708" d="M301 746l402 -401l-295 -296l-403 402v162l133 133h163zM102 592.5q12 -11.5 28.5 -11.5t28.5 11.5t12 28.5t-12 29t-28.5 12t-28.5 -12t-12 -29t12 -28.5z" />
<glyph unicode="z" horiz-adv-x="690" d="M685 142l-90 -90l-182 182q-63 -38 -136 -38h-4q-111 0 -189.5 78t-78.5 189t79 190t190 79t189.5 -79t78.5 -189q0 -75 -39 -139zM108 464q0 -69 48.5 -117.5t116.5 -48.5q69 0 117.5 48.5t48.5 117.5t-48.5 117.5t-117.5 48.5t-117 -48.5t-48 -117.5z" />
<glyph unicode="&#xa9;" horiz-adv-x="1158" d="M1022 0h-899q-44 0 -75 34t-31 82v495q0 48 31 82t75 34h900q44 0 75 -34t31 -82v-495q0 -48 -30.5 -82t-76.5 -34zM1024 77h24v49q0 6 1.5 11t4.5 7.5t6.5 4t8.5 1.5h2h3q1 0 1 -1h2v24q0 1 -1 1h-2h-2h-2q-5 0 -8 -1t-6 -3t-5 -5t-4 -7l-5 14h-18v-95zM930 110 q0 -9 2 -15.5t5.5 -10.5t8.5 -6t12 -2q3 0 7 0.5t7 2.5t5.5 4.5t4.5 5.5l5 -12h18v95h-24v-44q0 -8 -0.5 -14t-2.5 -10t-5 -6t-8 -2q-6 0 -9 5.5t-3 15.5v55h-23v-62zM861 153h11v-46q0 -9 2 -15t5.5 -10t8.5 -5t11 -1t11 1t8 3v19q-4 -1 -7 -2t-6 -1q-4 0 -6.5 2.5 t-2.5 8.5v46h21v19h-21v21h-15l-7 -20l-13 -9v-11zM775 77h23v45q0 8 1 13.5t3 9.5t5 6t7 2q7 0 9.5 -5t2.5 -15v-56h24v62q0 9 -2 16t-5.5 11t-9 6t-11.5 2q-4 0 -7.5 -0.5t-6.5 -2.5t-6 -4.5t-5 -6.5h-1l-3 12h-18v-95zM467 77h24v30l9 7l21 -37h27l-33 54l31 41h-26 l-22 -29l-8 -14l1 22v59h-24v-133zM377.5 102.5q3.5 -9.5 9 -15.5t13.5 -8.5t17 -2.5h9q4 0 7.5 1t6.5 2t6 3v20q-3 -2 -6.5 -3t-6.5 -2t-7 -2h-7q-5 0 -8.5 1.5t-6.5 4.5t-4.5 7.5t-1.5 9.5h53v13q0 10 -2.5 18t-7.5 13.5t-12 8.5t-15 3q-9 0 -16.5 -3t-12.5 -9.5t-8 -15.5 t-3 -21.5t3.5 -22zM314 77h24v49q0 6 1.5 11t4 7.5t6.5 4t8 1.5h2h2q2 0 3 -1h2v24l-1 1h-2h-3h-2q-4 0 -7.5 -1t-6 -3t-5 -5t-4.5 -7h-1l-3 14h-18v-95zM224 92.5q2 -5.5 5 -9.5t7.5 -5.5t10.5 -1.5q5 0 8.5 0.5t6.5 2.5t5.5 4.5t5.5 6.5l5 -13h17v64q0 17 -9 25t-25 8 q-9 0 -16.5 -2t-14.5 -6l8 -17q5 3 10.5 4.5t11 1.5t8.5 -2.5t3 -8.5v-8h-14q-17 -1 -26 -8t-9 -22q0 -8 2 -13.5zM90 77h21v58v5v7v6q0 3 -1 7v15l25 -98h23l26 98h1q0 -9 -1 -15v-6v-7v-6v-5v-59h22v125h-32l-27 -95l-25 95h-32v-125zM276 632l-177 -227q-32 -34 -32 -69 q0 -23 14 -47q26 -45 72 -45h9q32 3 56 30l198 254q25 29 25 58q0 24 -16 48q-28 40 -70 40q-8 0 -16 -1q-36 -6 -63 -41zM666 591q0 37 -26 61q-21 20 -51 20q-6 0 -11 -1q-37 -4 -64 -40l-194 -252q-25 -30 -25 -57q0 -24 18 -46q25 -31 58 -31q11 0 23 4q25 7 42 30 l230 290v22zM666 545l-172 -220q10 -78 84 -78q37 0 62.5 27.5t25.5 66.5v204zM659 202l-19 -75q0 -2 -1 -5q0 -3 -1 -8q-1 -3 -2 -8q0 -4 -1 -7q0 3 -1 7l-1 8l-2 8q0 3 -1 5l-19 75h-24l35 -125h26l36 125h-25zM685 146q-3 -9 -3 -21.5t3 -22t9 -15.5t13.5 -8.5t17.5 -2.5 h9q4 0 7.5 1t6.5 2t6 3v20q-4 -2 -7 -3l-6 -2q-3 -1 -7 -2h-8q-4 0 -8 1.5t-6.5 4.5t-4 7.5t-1.5 9.5h53v13q0 10 -2.5 18t-7.5 14t-12 8.5t-15 2.5q-9 0 -16.5 -3t-12.5 -9.5t-8 -15.5zM786 677q-34 0 -60 -24t-26 -62v-187l170 192q-3 39 -26 60t-58 21zM934 644 l-234 -262v-39q0 -58 44 -82q20 -13 42 -13q7 0 15 1q31 6 51 31l207 231q31 34 31 70q0 23 -14 48q-27 46 -75 46h-8q-32 -3 -59 -31zM722 156q4 0 6.5 -1.5t4.5 -4.5t3 -6.5t1 -7.5h-30q0 10 4 15t11 5zM250 116q2 2 5.5 3.5t7.5 1.5h8v-7q0 -5 -1 -8.5t-3 -6t-5 -3.5 t-6 -1q-4 0 -7 2.5t-3 8.5q0 3 1 5.5t3 4.5zM414 156q4 0 6.5 -1.5t4.5 -4.5t3 -6.5t1 -7.5h-30q0 10 4.5 15t10.5 5z" />
<glyph unicode="&#xad;" horiz-adv-x="752" d="M564 206v58h-57q-30 0 -57.5 7.5t-58 25.5t-43.5 27l-45 32q-95 75 -132 75h-2h-164v93h164h2q37 0 132 74q3 2 8 7q37 27 59 41t61 29t76 16h57v59l91 -54l93 -52l-93 -53l-91 -52v58h-57h-1q-50 0 -147 -74q-3 -2 -27 -19l-35 -27q12 -8 35.5 -26t26.5 -19 q96 -75 147 -75h1h57v60l91 -53l93 -53l-93 -53z" />
<glyph unicode="&#xae;" horiz-adv-x="1530" d="M1373 0h-1221q-60 0 -102 46t-42 112v406q0 66 42 112t102 46h1221q60 0 102 -46t42 -112v-406q0 -66 -42 -112t-102 -46zM359 594l-240 -309q-44 -46 -44 -94q0 -31 19 -64q37 -61 100 -61h11q43 4 76 42l268 343q34 39 34 80q0 32 -22 65q-37 55 -95 55q-11 0 -22 -2 q-48 -8 -85 -55zM889 538q0 50 -35 82q-30 26 -70 26h-14q-50 -6 -87 -54l-264 -342q-34 -41 -34 -79q0 -31 24 -61q34 -41 80 -41q15 0 31 4q33 9 57 41l312 394v30zM889 476l-234 -299q14 -106 115 -106q49 0 84 37t35 91v277zM1052 654q-47 0 -82 -32.5t-35 -83.5v-255 l231 261q-4 53 -35.5 81.5t-78.5 28.5zM1252 609l-317 -356v-53q0 -78 59 -111q27 -17 58 -17q10 0 20 2q42 7 70 42l280 313q42 47 42 95q0 32 -19 65q-36 63 -99 63q-6 0 -13 -1q-44 -4 -81 -42z" />
<glyph unicode="&#xc0;" horiz-adv-x="690" d="M503 325l182 -183l-90 -90l-182 182q-63 -38 -136 -38h-4q-111 0 -189.5 78t-78.5 189t79 190t190 79t189.5 -79t78.5 -189q0 -74 -39 -139zM273 298q69 0 117.5 48.5t48.5 117.5t-48.5 117.5t-117.5 48.5t-117 -49t-48 -117q0 -69 48 -117.5t117 -48.5zM150 515h247 v-102h-247v102z" />
<glyph unicode="&#xc1;" horiz-adv-x="690" d="M503 325l182 -183l-90 -90l-182 182q-63 -38 -136 -38h-4q-111 0 -189.5 78t-78.5 189t79 190t190 79t189.5 -79t78.5 -189q0 -74 -39 -139zM273 298q69 0 117.5 48.5t48.5 117.5t-48.5 117.5t-117.5 48.5t-117 -49t-48 -117q0 -69 48 -117.5t117 -48.5zM325 588v-73h72 v-102h-72v-73h-103v73h-72v102h72v73h103z" />
<glyph unicode="&#xc2;" horiz-adv-x="437" d="M432 271l-73 -72l-141 140l-140 -140l-73 72l141 141l-141 141l73 72l140 -141l141 141l73 -72l-141 -141z" />
<glyph unicode="&#xc3;" horiz-adv-x="684" d="M5 442l73 73l197 -199l331 331l73 -73l-404 -403z" />
<glyph unicode="&#xc4;" d="M377.5 511q41.5 0 70.5 -29t29 -70.5t-28 -70.5l21 -33l-35 -22l-21 32q-18 -7 -36 -7q-42 0 -71 29.5t-29 71t29 70.5t70.5 29zM377 781q101 0 186.5 -49.5t136 -135t50.5 -187t-50.5 -187t-136 -135t-186.5 -49.5t-187 49.5t-135.5 135t-49.5 187t49.5 187t135.5 135 t187 49.5zM638 287l-55 60q7 26 9 54l73 39q-1 18 -8 42l-82 12q-10 25 -27 47l32 76q-14 14 -33 27l-70 -43q-25 13 -52 20l-25 76q-14 1 -21 1t-22 -1l-24 -76q-28 -5 -53 -19l-69 42q-18 -12 -33 -27l31 -74q-18 -24 -30 -49l-79 -12q-6 -23 -7 -42l71 -38q1 -30 9 -56 l-53 -59q10 -22 21 -37l79 16q19 -22 44 -36l-3 -80q19 -9 40 -15l49 64q14 -2 28 -2q13 0 29 2l50 -64q20 5 40 15l-3 81q24 14 42 35l80 -16q12 17 22 37z" />
<glyph unicode="&#xc5;" d="M377 781q101 0 186.5 -49.5t136 -135t50.5 -187t-50.5 -187t-136 -135t-186.5 -49.5t-187 49.5t-135.5 135t-49.5 187t49.5 187t135.5 135t187 49.5zM592 436q26 30 32 69q2 11 2 22q0 27 -11 52l-70 -83l-71 13l-22 68l70 81q-17 4 -33 4l-41 -6q-37 -11 -63 -41 q-28 -31 -33 -72q-1 -9 -1 -18q0 -31 14 -58l-184 -212q-14 -15 -14 -35q0 -25 19 -41q15 -14 35 -14q2 0 5 1q22 1 36 17l184 212q20 -6 41 -6q18 0 37 5q40 10 68 42z" />
<glyph unicode="&#xc6;" horiz-adv-x="641" d="M5 390v122q113 0 209 -56.5t152 -152.5t56 -210h-122q0 123 -86.5 210t-208.5 87zM5 605v122q128 0 245 -50t202 -135t134.5 -202.5t49.5 -246.5h-121q0 104 -40.5 199t-108.5 163.5t-163 109t-198 40.5zM173 178q0 -35 -24.5 -59.5t-59.5 -24.5t-59.5 24.5t-24.5 59.5 t24.5 59.5t59.5 24.5t59.5 -24.5t24.5 -59.5z" />
<glyph unicode="&#xc7;" horiz-adv-x="744" d="M707 540q10 3 19 -2.5t12 -15.5q1 -4 1 -7q0 -6 -3 -12q-6 -9 -16 -13l-151 -40q1 -11 1 -23q0 -37 -9 -84l147 -83q9 -5 11.5 -15.5t-2.5 -19.5t-15.5 -11.5t-19.5 2.5l-133 76q-32 -109 -72 -125q-5 -2 -11 -2q-18 0 -33 24q-1 -44 -30 -44q-16 0 -41 14q-35 17 -76 58 l-74 -131q-5 -9 -16 -12q-4 -1 -8 -1q-6 0 -12 3q-8 5 -11 15t2 20l82 144q-42 48 -61 89l-150 -42q-10 -3 -19.5 2t-12.5 16q-1 3 -1 7q0 6 3 12q5 9 16 12l149 41q-4 24 -4 49q0 31 7 62l-139 79q-9 5 -12 15t2.5 19.5t15.5 12t19 -2.5l133 -75q14 30 36 52q-2 11 -2 21 q0 37 30 65v1v3q-3 8 -6.5 15t-7 10.5t-7.5 5.5q-9 5 -19 3q4 -9 0 -17q-4 -6 -11 -9.5t-15 0.5q-7 4 -9.5 13t1.5 17q3 6 9 9t12 4t13 -0.5t13 -5.5q8 -5 16 -13q7 -9 11 -18q2 -4 5 -14q14 11 33 17q13 4 29 3q-2 10 -2 11q-1 10 0 21.5t6 20.5q4 6 8.5 10.5t10.5 7 t12.5 2.5t12.5 -3q8 -5 10.5 -13t-1.5 -15q-4 -8 -12.5 -9.5t-14.5 2.5q-8 5 -9 15q-9 -3 -14 -13q-2 -3 -3 -9q-2 -5 -2 -12q1 -7 3 -16q28 -3 49 -21t29 -45q25 -8 49 -23l74 133q5 9 15.5 11.5t20 -2.5t12.5 -15.5t-2 -19.5l-80 -139q40 -39 59 -93z" />
<glyph unicode="&#xc8;" horiz-adv-x="644" d="M322 701q55 54 132 55h1q75 0 129 -54q55 -55 55 -131.5t-54 -131.5q-32 -32 -74 -45q-29 -9 -58 -9q-13 0 -27 2l81 80q17 9 29 20q34 34 34 82q-1 49 -34 83q-34 34 -82 34t-83 -34q-11 -11 -21 -28l-80 -80q-2 13 -2 26q0 30 10 58q13 41 44 73zM294 254v1l80 80 q2 -13 2 -26q0 -30 -10 -59q-13 -42 -44 -74q-54 -54 -131 -54t-131.5 54t-54.5 131.5t54 131.5q32 32 73 45q27 8 55 8q15 0 30 -2l-80 -79q-17 -9 -28 -21q-34 -35 -34 -83t33.5 -82t82 -34t82.5 34q12 12 21 29zM163 336q-10 10 -10 25t10 25l212 212q10 10 25 10t25 -10 l56 -56q11 -11 11 -26q0 -13 -11 -24l-212 -212q-11 -10 -25 -10q-1 -1 -2 -1q-13 0 -23 11z" />
<glyph unicode="&#xc9;" horiz-adv-x="492" d="M137 427l-19 -19l-19 18l52 50h27v-190h47v-26h-125v26h48v140v13q-3 -4 -11 -12zM251 276q0 26 16.5 47t36.5 33t36 27.5t16 32.5q0 16 -10.5 26t-28.5 10q-12 0 -23 -7t-15 -14l-6 -7l-22 15q3 4 7.5 11.5t22 18.5t38.5 11q31 0 50 -17.5t19 -44.5q0 -24 -16 -44 t-35.5 -30.5t-35.5 -26t-16 -31.5h106v-26h-139q-1 9 -1 16zM143 727v-85h-51v85h51zM425 697h62v-555h-482v555h62v-81h102v81h154v-82h102v82zM462 168v382h-431v-382h431zM399 727v-85h-51v85h51z" />
<glyph unicode="&#xca;" horiz-adv-x="411" d="M353 542q5 -11 5 -23q0 -20 -12 -43l-28 -59l-7 -16l-30 15l-93 -196q-4 -9 -10 -15t-15 -12.5t-11 -8.5q-26 -20 -50 -69l-7 -16l-90 43l7 16q23 48 23 82q0 3 -1 14t0 19.5t5 18.5l92 194l-30 15l8 15l27 59q16 39 46 48q1 0 4 1l4 2l4 2q3 2 4.5 5t4.5 7.5t6 10.5 l43 90q5 11 15 20q8 7 21 9h7q11 0 22 -4l61 -29q14 -6 21.5 -18t7.5 -24t-6 -24l-42 -90q-8 -19 -8.5 -26.5t2.5 -12.5zM159 234l92 196l-90 42l-92 -194q-1 -3 -1.5 -7t-0.5 -7t1 -10v-17q0 -34 -19 -79l31 -15q23 45 51 67l11 8q5 4 8 6t5.5 4.5t3.5 5.5z" />
<glyph unicode="&#xcb;" horiz-adv-x="658" d="M330 744h1q133 0 227 -95q95 -95 95 -229t-94.5 -229.5t-229 -95.5t-229.5 95.5t-95 229.5t95 228.5t230 95.5zM577 420q0 102 -72.5 174.5t-174.5 72.5q-74 0 -135 -40l342 -342q40 61 40 135zM82 420q0 -102 72.5 -175t175.5 -73q73 0 134 41l-342 342 q-40 -62 -40 -135z" />
<glyph unicode="&#xcc;" horiz-adv-x="641" d="M5 569zM5 569l54 55l202 -202l-202 -202l-54 54l148 148zM267 223v77h369v-77h-369zM378 384v77h258v-77h-258zM267 621h369v-77h-369v77z" />
<glyph unicode="&#xcd;" horiz-adv-x="544" d="M488 557q22 0 37 -15.5t15 -35.5v-266q0 -20 -15 -36t-37 -16h-432q-22 0 -36.5 15.5t-14.5 36.5v266q0 20 15 35.5t36 15.5h97v38h239v-38h96zM272.5 218q64.5 0 109.5 45t45 109.5t-45 110t-109.5 45.5t-110 -45.5t-45.5 -110t45.5 -109.5t110 -45zM272 477 q43 0 73.5 -30.5t30.5 -73.5t-30.5 -73.5t-73.5 -30.5t-73.5 30.5t-30.5 73.5t30.5 73.5t73.5 30.5z" />
<glyph unicode="&#xce;" horiz-adv-x="585" d="M530 509q20 0 36 -15t16 -36v-228h-105v-53q0 -5 -3.5 -8t-8.5 -3h-344q-5 0 -8 3t-3 8v53h-105v228q0 22 15 36.5t36 14.5h54v150q0 5 3 9t8 4h190q2 0 5 -1q39 -4 97 -61q56 -56 62 -101h55zM454 188v80h-322v-80h322zM454 463v36v3q-4 20 -51 30q-28 7 -55 7h-12v12 l1 18q0 33 -6 55q-8 24 -19 24h-1h-179v-178h319q2 -2 3 -5v-2z" />
<glyph unicode="&#xcf;" horiz-adv-x="695" d="M581 284l101 59l3 2q-26 -118 -119.5 -194.5t-216.5 -76.5q-93 0 -172.5 46t-125.5 125.5t-46 172.5t46 172.5t125.5 125.5t172.5 46q123 0 216.5 -77t119.5 -195l-3 3l-101 58q-36 61 -97.5 97.5t-134.5 36.5q-111 0 -189 -78.5t-78 -188.5q0 -111 78.5 -189t188.5 -78 q73 0 134.5 36.5t97.5 96.5zM690 418l-182 -106v59h-282v94h282v58z" />
<glyph unicode="&#xd0;" horiz-adv-x="741" d="M392 762q93 0 172.5 -46t125.5 -125.5t46 -172.5t-46 -172.5t-125.5 -125.5t-172.5 -46q-114 0 -203.5 66.5t-122.5 171.5h81q31 -73 97.5 -117t147.5 -44q111 0 189 78t78 189t-78 189t-189 78q-81 0 -147.5 -44.5t-97.5 -117.5h-81q34 105 123 172t203 67zM286 312v59 h-281v94h281v58l183 -105z" />
<glyph unicode="&#xd1;" horiz-adv-x="703" d="M403 297q-14 -10 -33 -19l-51 52q-12 -4 -22 -6l-17 -70q-13 -1 -21 -1q-7 0 -19 1l-18 70q-10 2 -22 6l-50 -52q-18 9 -34 19l20 70q-9 8 -16 16l-71 -19q-9 14 -18 33l51 50q-4 12 -6 23l-70 17q-1 13 -1 20t1 19l70 18q2 10 6 22l-51 50q9 19 18 34l71 -19q7 9 16 16 l-20 70q14 10 34 19l50 -52q12 4 22 6l18 71q14 1 19.5 1t19.5 -1l18 -71q10 -2 22 -6l51 52q18 -9 33 -19l-20 -70q9 -8 16 -16l70 19q10 -14 19 -34l-51 -50q4 -11 6 -22l70 -18q1 -13 1 -19t-1 -20l-70 -17q-2 -10 -6 -23l51 -50q-9 -19 -19 -33l-70 19q-7 -8 -16 -16z M259.5 420q36.5 0 61.5 25.5t25 61.5t-25 61.5t-61.5 25.5t-62 -25.5t-25.5 -61.5t25.5 -61.5t62 -25.5zM656 239l42 -36q-3 -14 -9 -29l-55 -3q-12 -18 -30 -31v-56l-13 -5q-6 -2 -16 -5l-36 41h-7q-18 0 -36 4l-44 -34q-13 7 -26 15l9 55q-15 16 -23 35l-55 14 q-3 15 -4 29l48 28q3 22 14 41l-23 50q9 11 21 22l51 -21q10 5 18 8q10 4 22 7l25 50q14 0 30 -3l15 -54q20 -8 37 -21l55 11q9 -11 16 -25l-32 -45q6 -22 6 -42zM549 187q23 9 33 31q6 13 6 25q0 10 -4 21q-9 23 -32 33q-11 5 -23 5q-11 0 -22 -4q-23 -9 -33 -32 q-5 -12 -5 -24q0 -10 3 -21q9 -23 32 -33q11 -5 23 -5q11 0 22 4z" />
<glyph unicode="&#xd2;" horiz-adv-x="528" d="M395 319v177q0 10 -7.5 32t-20.5 38q-37 44 -103 45q-66 -1 -103 -45q-13 -16 -21 -38t-7 -32v-177h-128v177q1 79 55 149q33 42 86 69q51 25 113 25h5h5q63 0 113 -25q53 -27 85 -69q54 -71 56 -149v-177h-128zM523 165l-128 -1v131h128v-130zM5 164v131h128v-131h-128z " />
<glyph unicode="&#xd3;" horiz-adv-x="576" d="M157 362l-42 -43h-86v177q2 79 56 149q32 42 85 69q50 25 113 25h5h3q104 0 176 -67l-91 -90q-31 29 -84 29h-4q-66 -1 -103 -45q-13 -16 -20.5 -38t-7.5 -32v-134zM29 295h60l-60 -61v61zM419 479l107 108q19 -45 21 -91v-177h-128v160zM535 703l36 -35l-530 -531 l-36 37zM419 164v131h128v-131h-128zM157 164h-53l53 53v-53z" />
<glyph unicode="&#xd4;" horiz-adv-x="878" d="M427 280v51h26v-51h-26zM427 177v51h26v-51h-26zM427 75v51h26v-51h-26zM427 -3v27h26v-27h-26zM427 382v51h26v-51h-26zM427 792v51h26v-51h-26zM427 689v51h26v-51h-26zM427 587v51h26v-51h-26zM427 484v52h26v-52h-26zM512 788l361 -664h-361v664zM538 688v-538h292z M366 124h-361l361 664v-664z" />
<glyph unicode="&#xd5;" horiz-adv-x="856" d="M568 408v25h-51v-25h51zM671 408v25h-51v-25h51zM773 408v25h-51v-25h51zM851 408v25h-27v-25h27zM466 408v25h-51v-25h51zM56 408v25h-51v-25h51zM159 408v25h-51v-25h51zM261 408v25h-51v-25h51zM364 408v25h-52v-25h52zM59 493l665 361v-361h-665zM160 518h538v293z M724 346v-360l-665 360h665z" />
<glyph unicode="&#xd6;" horiz-adv-x="735" d="M610 468h120v-102h-120q-18 -100 -97 -166.5t-182 -66.5v103q75 0 128 53t53 128q0 76 -53 128.5t-128 52.5v102q103 0 182 -66t97 -166zM489 416.5q0 -65.5 -46.5 -112t-111.5 -46.5q-52 0 -93 29.5t-58 78.5h-175v102h175q16 48 57.5 77.5t93.5 29.5q66 0 112 -46.5 t46 -112z" />
<glyph unicode="&#xd7;" horiz-adv-x="735" d="M205 575q66 0 112.5 -46.5t46.5 -112t-47 -112t-112 -46.5q-52 0 -93.5 29.5t-58.5 78.5h-48v102h48q16 48 58 77.5t94 29.5zM677 468h53v-102h-53q-18 -100 -96.5 -166.5t-182.5 -66.5v103q75 0 128.5 53t53.5 128q0 76 -53.5 128.5t-128.5 52.5v102q103 0 182 -66 t97 -166z" />
<glyph unicode="&#xd8;" horiz-adv-x="699" d="M694 493v-291q0 -43 -29.5 -73t-72.5 -30h-484q-42 0 -72.5 30t-30.5 73v363q0 42 30.5 72.5t72.5 30.5h73q34 -1 60.5 -21t37.5 -52h313q43 0 72.5 -29.5t29.5 -72.5zM108 616q-20 0 -36 -15t-16 -36v-85q25 14 52 15h484q28 0 51 -15v13q0 22 -15 36.5t-36 14.5h-359 l-2 24q-1 19 -15.5 33.5t-34.5 14.5h-73zM592 151q22 0 36.5 14.5t14.5 36.5v190q0 22 -15 36.5t-36 14.5h-484q-20 0 -36 -15t-16 -36v-190q0 -22 15.5 -36.5t36.5 -14.5h484z" />
<glyph unicode="&#xd9;" horiz-adv-x="337" d="M302 400q28 -49 30 -93q1 -4 1 -8q0 -37 -22 -49q-6 -3 -12 -3q-15 0 -32 16q4 -24 4 -48q0 -56 -19 -96t-46 -40q-29 0 -37 56q-8 -56 -38 -56q-27 0 -45.5 40t-18.5 96q0 25 4 48q-17 -16 -31 -16q-7 0 -13 3q-22 12 -22 49q0 4 1 8q2 44 29 93q24 41 54 68 q36 -27 79.5 -27t79.5 27q31 -27 54 -68zM169 467q-45 0 -77.5 32t-32.5 77.5t32.5 77.5t77.5 32t77.5 -32t32.5 -77.5t-32.5 -77.5t-77.5 -32z" />
<glyph unicode="&#xda;" horiz-adv-x="337" d="M302 400q28 -49 30 -93q1 -4 1 -8q0 -37 -22 -49q-6 -3 -12 -3q-15 0 -32 16q4 -24 4 -48q0 -56 -19 -96t-46 -40q-29 0 -37 56q-8 -56 -38 -56q-27 0 -45.5 40t-18.5 96q0 25 4 48q-17 -16 -31 -16q-7 0 -13 3q-22 12 -22 49q0 4 1 8q2 44 29 93q24 41 54 68 q36 -27 79.5 -27t79.5 27q31 -27 54 -68zM169 467q-45 0 -77.5 32t-32.5 77.5t32.5 77.5t77.5 32t77.5 -32t32.5 -77.5t-32.5 -77.5t-77.5 -32zM244 692q-6 2 -19 6t-18 6l-13 7q-7 4 -9.5 8t-2.5 10q0 3 1 6t3 5.5t4.5 5t7 4.5t7 3.5t8.5 3.5l9 3l10 4l12 3q9 2 13 2 q5 0 5 -7q0 -3 -1 -6l-3 -12q-2 -8 -2 -13t2 -13t3 -13q1 -3 1 -7q0 -9 -4 -9q-1 0 -1 1q-4 0 -13 2zM169 707q-9 0 -11 2t0 9.5t2 10.5t-2 11t0 10t11 2t11 -2q1 -1 1 -3.5t-1 -6.5q-2 -7 -2 -10.5t2 -10.5q1 -3 1 -5.5t-1 -3.5q-2 -3 -11 -3zM94 692q-9 -2 -14 -2v-1 q-4 0 -4 5q0 6 1 11l3 13q1 8 1 13t-1.5 13t-3.5 12q-1 3 -1 6q0 7 5 7t14 -2l10 -3q8 -3 11.5 -4t9 -3t8.5 -3l7 -4q4 -2 6 -4.5t5 -5t3.5 -5.5t0.5 -6q0 -6 -2.5 -10t-10.5 -8l-12 -7q-5 -2 -18 -6z" />
<glyph unicode="&#xdb;" horiz-adv-x="612" d="M556 784q20 0 35.5 -15t15.5 -36v-608q0 -22 -15 -36.5t-36 -14.5h-432q-22 0 -36.5 14t-14.5 36h41q22 0 36.5 15t14.5 36.5t-15 36t-36 14.5h-41v26h41q22 0 36.5 15t14.5 36.5t-15 36t-36 14.5h-41v26h41q22 0 36.5 15t14.5 36.5t-15 36t-36 14.5h-41v26h41 q22 0 36.5 15t14.5 36t-15 36t-36 15h-41v26h41q22 0 36.5 15t14.5 36t-15 36t-36 15h-41q2 19 16 32.5t35 13.5h432zM565 605v112q0 10 -7.5 17.5t-17.5 7.5h-262q-12 0 -19 -7.5t-7 -17.5v-112q0 -11 7.5 -18t18.5 -7h262q10 0 17.5 7t7.5 18zM139 175q0 -10 -7 -17.5 t-18 -7.5h-83q-11 0 -18.5 7.5t-7.5 17.5t8 18t18 8h83q11 0 18 -8t7 -18zM31 662h83q11 0 18 7t7 17.5t-7 18.5t-18 8h-83q-10 0 -18 -8t-8 -18.5t8 -17.5t18 -7zM31 534q-10 0 -18 7t-8 17.5t8 18.5t18 8h83q11 0 18 -8t7 -18.5t-7 -17.5t-18 -7h-83zM31 406q-10 0 -18 7 t-8 17.5t8 18.5t18 8h83q11 0 18 -8t7 -18.5t-7 -17.5t-18 -7h-83zM5 303q0 10 8 18t18 8h83q11 0 18 -8t7 -18t-7 -17.5t-18 -7.5h-83q-11 0 -18.5 7.5t-7.5 17.5z" />
<glyph unicode="&#xdc;" horiz-adv-x="736" d="M141 379v-43h-51v75l190 94v30q14 -6 29 -7h22v-55zM647 336h-51v43l-189 94v55h20q16 0 31 7v-30l189 -94v-75zM394 336h-51v192h51v-192zM680 310q22 0 36.5 -14.5t14.5 -36.5v-118q0 -22 -15 -36.5t-36 -14.5h-118q-22 0 -36.5 15t-14.5 36v118q0 22 15 36.5t36 14.5 h118zM175 310q20 0 35.5 -14.5t15.5 -36.5v-118q0 -22 -15 -36.5t-36 -14.5h-119q-22 0 -36.5 15t-14.5 36v118q0 22 15 36.5t36 14.5h119zM309 554q-22 0 -36.5 15t-14.5 36v118q0 22 15 36.5t36 14.5h119q20 0 35.5 -15t15.5 -36v-118q0 -22 -15 -36.5t-36 -14.5h-119z M428 310q20 0 35.5 -14.5t15.5 -36.5v-118q0 -22 -15 -36.5t-36 -14.5h-119q-22 0 -36.5 15t-14.5 36v118q0 22 15 36.5t36 14.5h119z" />
<glyph unicode="&#x2000;" horiz-adv-x="427" />
<glyph unicode="&#x2001;" horiz-adv-x="854" />
<glyph unicode="&#x2002;" horiz-adv-x="427" />
<glyph unicode="&#x2003;" horiz-adv-x="854" />
<glyph unicode="&#x2004;" horiz-adv-x="284" />
<glyph unicode="&#x2005;" horiz-adv-x="213" />
<glyph unicode="&#x2006;" horiz-adv-x="142" />
<glyph unicode="&#x2007;" horiz-adv-x="142" />
<glyph unicode="&#x2008;" horiz-adv-x="106" />
<glyph unicode="&#x2009;" horiz-adv-x="170" />
<glyph unicode="&#x200a;" horiz-adv-x="47" />
<glyph unicode="&#x2010;" horiz-adv-x="752" d="M564 206v58h-57q-30 0 -57.5 7.5t-58 25.5t-43.5 27l-45 32q-95 75 -132 75h-2h-164v93h164h2q37 0 132 74q3 2 8 7q37 27 59 41t61 29t76 16h57v59l91 -54l93 -52l-93 -53l-91 -52v58h-57h-1q-50 0 -147 -74q-3 -2 -27 -19l-35 -27q12 -8 35.5 -26t26.5 -19 q96 -75 147 -75h1h57v60l91 -53l93 -53l-93 -53z" />
<glyph unicode="&#x2011;" horiz-adv-x="752" d="M564 206v58h-57q-30 0 -57.5 7.5t-58 25.5t-43.5 27l-45 32q-95 75 -132 75h-2h-164v93h164h2q37 0 132 74q3 2 8 7q37 27 59 41t61 29t76 16h57v59l91 -54l93 -52l-93 -53l-91 -52v58h-57h-1q-50 0 -147 -74q-3 -2 -27 -19l-35 -27q12 -8 35.5 -26t26.5 -19 q96 -75 147 -75h1h57v60l91 -53l93 -53l-93 -53z" />
<glyph unicode="&#x202f;" horiz-adv-x="170" />
<glyph unicode="&#x205f;" horiz-adv-x="213" />
</font>
</defs>
</svg>
